<?xml version="1.0" standalone="no"?>
<!DOCTYPE svg PUBLIC "-//W3C//DTD SVG 1.1//EN" "http://www.w3.org/Graphics/SVG/1.1/DTD/svg11.dtd">
<svg xmlns="http://www.w3.org/2000/svg">
<metadata>Generated by Fontastic.me</metadata>
<defs>
<font id="cristmas" horiz-adv-x="512">
<font-face font-family="cristmas" units-per-em="512" ascent="480" descent="-32"/>
<missing-glyph horiz-adv-x="512" />

<glyph unicode="&#97;" d="M256 0c-6 0-11 5-11 11l0 490c0 6 5 11 11 11 6 0 11-5 11-11l0-490c0-6-5-11-11-11z m0 379c-3 0-6 1-8 4l-76 84c-4 4-4 11 0 15 5 4 12 3 16-1l76-84c4-4 4-11-1-15-2-2-4-3-7-3z m0 0c-3 0-5 1-7 3-5 4-5 11-1 15l76 84c4 4 11 5 16 1 4-4 4-11 0-15l-76-84c-2-3-5-4-8-4z m76-352c-3 0-5 2-8 4l-76 84c-4 4-4 11 1 15 4 4 11 4 15-1l76-84c4-4 4-11 0-15-2-2-5-3-8-3z m-152 0c-3 0-6 1-8 3-4 4-4 11 0 15l76 84c4 5 11 5 15 1 5-4 5-11 1-15l-76-84c-3-2-5-4-8-4z m321 218l-490 0c-6 0-11 5-11 11 0 6 5 11 11 11l490 0c6 0 11-5 11-11 0-6-5-11-11-11z m-111 0c-3 0-6 2-8 4-4 4-4 11 1 15l84 76c4 4 11 4 15 0 4-5 3-12-1-16l-84-76c-2-2-5-3-7-3z m84-76c-3 0-5 1-7 3l-84 76c-5 4-5 11-1 15 4 5 11 5 15 1l84-76c4-4 5-11 1-16-2-2-5-3-8-3z m-436 0c-3 0-6 1-8 3-4 5-3 12 1 16l84 76c5 4 11 4 15-1 4-4 4-11-1-15l-84-76c-2-2-4-3-7-3z m84 76c-2 0-5 1-7 3l-84 76c-4 4-5 11-1 16 4 4 11 4 15 0l84-76c5-4 5-11 1-15-2-2-5-4-8-4z m-39-173c-3 0-6 1-8 3-4 4-4 11 0 15l347 347c4 4 11 4 15 0 4-4 4-11 0-15l-347-347c-2-2-5-3-7-3z m269 270c0 0 0 0 0 0-6 0-11 5-10 11l5 115c0 6 6 11 11 10 6 0 11-5 10-11l-5-115c0-6-5-10-11-10z m0 0c-5 0-10 4-10 10-1 6 4 11 10 11l115 5c6 1 11-4 11-10 1-6-4-11-10-11l-115-5c0 0-1 0-1 0z m-198-308c0 0 0 0 0 0-6 0-11 5-10 11l5 115c0 6 5 11 11 10 6 0 11-5 10-11l-5-115c0-6-5-10-11-10z m-110 109c-5 0-10 5-10 11-1 6 4 11 10 11l115 5c6 1 11-4 11-10 1-6-4-11-10-11l-115-5c0-1-1-1-1-1z m385-71c-2 0-5 1-7 3l-347 347c-4 4-4 11 0 15 4 4 11 4 15 0l347-347c4-4 4-11 0-15-2-2-5-3-8-3z m39 72c0 0-1 0-1 0l-115 5c-6 0-11 5-10 11 0 6 5 11 11 10l115-5c6 0 11-5 10-11 0-6-5-10-10-10z m-110-110c-6 0-11 4-11 10l-5 115c-1 6 4 11 10 11 6 1 11-4 11-10l5-115c1-6-4-11-10-11 0 0 0 0 0 0z m-198 308c0 0-1 0-1 0l-115 5c-6 0-11 5-10 11 0 6 5 11 11 10l115-5c6 0 11-5 10-11 0-6-5-10-10-10z m0 0c-6 0-11 4-11 10l-5 115c-1 6 4 11 10 11 5 1 11-4 11-10l5-115c1-6-4-11-10-11 0 0 0 0 0 0z m146-47c-1 0-1 0-1 0-6 0-10 5-10 11l3 60c0 6 5 10 11 10 6-1 10-6 10-11l-3-60c0-6-5-10-10-10z m0 0c-6 0-11 4-11 10 0 6 4 11 10 11l60 3c5 0 10-4 11-10 0-6-4-11-10-11l-60-3c0 0 0 0 0 0z m-102-159c-1 0-1 0-1 0-6 1-10 6-10 11l3 60c0 6 5 10 11 10 6 0 10-5 10-11l-3-60c0-5-5-10-10-10z m-57 57c-6 0-10 4-11 10 0 6 4 11 10 11l60 3c6 0 11-4 11-10 0-6-4-11-10-11l-60-3c0 0 0 0 0 0z m218 0c0 0 0 0 0 0l-60 3c-6 0-10 5-10 11 0 6 5 10 11 10l60-3c6 0 10-5 10-11-1-6-5-10-11-10z m-57-57c-5 0-10 5-10 10l-3 60c0 6 4 11 10 11 6 1 11-4 11-10l3-60c0-5-4-10-10-11 0 0 0 0-1 0z m-102 159c0 0 0 0 0 0l-60 3c-6 0-10 5-10 11 1 6 5 10 11 10l60-3c6 0 10-5 10-11 0-6-5-10-11-10z m0 0c-5 0-10 4-10 10l-3 60c0 5 4 10 10 11 6 0 11-4 11-10l3-60c0-6-4-11-10-11 0 0 0 0-1 0z"/>
<glyph unicode="&#98;" d="M256 180c-91 0-165 74-165 165 0 91 74 165 165 165 91 0 165-74 165-165 0-91-74-165-165-165z m0 309c-79 0-144-65-144-144 0-79 65-144 144-144 79 0 144 65 144 144 0 79-65 144-144 144z m0-246c-56 0-102 46-102 102 0 56 46 101 102 101 56 0 102-45 102-101 0-56-46-102-102-102z m0 182c-44 0-80-36-80-80 0-44 36-80 80-80 44 0 80 36 80 80 0 44-36 80-80 80z m31-80c0-17-14-31-31-31-17 0-31 14-31 31 0 17 14 31 31 31 17 0 31-14 31-31z m-31-343c-6 0-11 5-11 11l0 178c0 5 5 10 11 10 6 0 11-5 11-10l0-178c0-6-5-11-11-11z"/>
<glyph unicode="&#99;" d="M256 186c-90 0-163 73-163 163 0 90 73 163 163 163 90 0 163-73 163-163 0-90-73-163-163-163z m0 305c-78 0-142-64-142-142 0-78 64-142 142-142 78 0 142 64 142 142 0 78-64 142-142 142z m0-491c-6 0-11 5-11 11l0 177c0 6 5 10 11 10 6 0 11-4 11-10l0-177c0-6-5-11-11-11z m147 299c-3 0-6 2-8 4-45 63-135 36-136 36-4-2-8-1-10 2-3 3-4 7-3 11 0 1 30 107 136 95 6-1 10-6 10-12-1-6-6-10-12-9-64 7-95-37-107-62 33 5 99 7 139-48 4-5 2-12-2-15-2-1-4-2-7-2z m-154-113c-3 0-5 1-7 3-4 4-5 11-1 15 45 46 29 97 16 122-16-29-54-83-122-81-6 0-11 5-10 11 0 6 4 11 10 10 77-2 111 86 111 87 1 3 5 6 8 6 4 1 8-1 10-4 1-1 67-89-7-166-2-2-5-3-8-3z m-42 144c-34 0-76 11-105 60-3 5-2 12 3 15 5 3 12 1 15-4 33-55 86-53 114-47-24 23-66 74-46 139 1 6 7 9 13 7 6-2 9-8 7-13-22-74 53-129 54-129 3-3 5-7 5-10-1-4-3-8-7-9-1 0-23-9-53-9z"/>
<glyph unicode="&#100;" d="M256 0c-6 0-11 5-11 11l0 490c0 6 5 11 11 11 6 0 11-5 11-11l0-490c0-6-5-11-11-11z m0 356c-3 0-6 1-8 3l-63 69c-4 5-3 12 1 16 4 3 11 3 15-1l63-70c4-4 4-11-1-15-2-2-4-2-7-2z m0 0c-3 0-5 0-7 2-5 4-5 11-1 15l63 70c4 4 11 4 15 1 4-4 5-11 1-16l-63-69c-2-2-5-3-8-3z m63-290c-3 0-6 1-8 3l-63 70c-4 4-4 11 1 15 4 4 11 3 15-1l63-69c4-5 3-12-1-16-2-1-4-2-7-2z m-126 0c-3 0-5 1-7 2-4 4-5 11-1 16l63 69c4 4 11 5 15 1 5-4 5-11 1-15l-63-70c-2-2-5-3-8-3z m308 179l-490 0c-6 0-11 5-11 11 0 6 5 11 11 11l490 0c6 0 11-5 11-11 0-6-5-11-11-11z m-135 0c-3 0-6 2-8 4-4 4-3 11 1 15l69 63c5 4 12 4 16-1 3-4 3-11-1-15l-70-63c-2-2-4-3-7-3z m70-63c-3 0-5 1-8 3l-69 63c-4 4-5 11-1 15 4 5 11 5 15 1l70-63c4-4 4-11 1-15-3-2-5-4-8-4z m-360 0c-3 0-5 2-8 4-3 4-3 11 1 15l70 63c4 4 11 4 15-1 4-4 3-11-1-15l-69-63c-2-2-5-3-8-3z m70 63c-3 0-5 1-7 3l-70 63c-4 4-4 11-1 15 4 5 11 5 16 1l69-63c4-4 5-11 1-15-2-2-5-4-8-4z m-63-173c-3 0-6 1-8 3-4 4-4 11 0 15l347 347c4 4 11 4 15 0 4-4 4-11 0-15l-347-347c-2-2-5-3-7-3z m269 270c0 0 0 0 0 0-6 0-11 5-10 11l5 115c0 6 6 10 11 10 6 0 11-5 11-11l-6-115c0-6-5-10-11-10z m0 0c-5 0-10 4-10 10-1 6 4 11 10 11l115 5c6 1 11-4 11-10 1-6-4-11-10-11l-115-5c0 0-1 0-1 0z m-198-308c0 0 0 0 0 0-6 0-11 5-10 11l5 115c0 6 5 11 11 10 6 0 11-5 10-11l-5-115c0-6-5-10-11-10z m-110 109c-5 0-10 5-10 11-1 6 4 11 10 11l115 5c6 1 11-4 11-10 1-6-4-11-10-11l-115-5c0-1-1-1-1-1z m385-71c-2 0-5 1-7 3l-347 347c-4 4-4 11 0 15 4 4 11 4 15 0l347-347c4-4 4-11 0-15-2-2-5-3-8-3z m39 72c0 0-1 0-1 0l-115 5c-6 0-11 5-10 11 0 6 5 11 11 10l115-5c6 0 11-5 10-11 0-6-5-10-10-10z m-110-110c-6 0-11 4-11 10l-5 115c-1 6 4 11 10 11 6 1 11-4 11-10l5-115c1-6-4-11-10-11 0 0 0 0 0 0z m-198 308c0 0-1 0-1 0l-115 5c-6 0-11 5-10 11 0 6 5 11 11 10l115-5c6 0 11-5 10-11 0-6-5-10-10-10z m0 0c-6 0-11 4-11 10l-5 115c-1 6 4 11 10 11 5 1 11-4 11-10l5-115c1-6-4-11-10-11 0 0 0 0 0 0z"/>
<glyph unicode="&#101;" d="M256 238c-6 0-11 5-11 11l0 252c0 6 5 11 11 11 6 0 11-5 11-11l0-252c0-6-5-11-11-11z m0 172c-3 0-5 1-7 3l-72 65c-4 4-4 11 0 15 4 4 10 5 15 1l71-65c5-4 5-11 1-15-2-2-5-4-8-4z m0 0c-3 0-6 2-8 4-4 4-4 11 1 15l71 65c5 4 11 3 15-1 4-4 4-11 0-15l-72-65c-2-2-4-3-7-3z m0-410c-6 0-11 5-11 11l0 236c0 6 5 11 11 11 6 0 11-5 11-11l0-236c0-6-5-11-11-11z m72 16c-3 0-6 0-8 2l-71 65c-5 4-5 11-1 15 4 4 11 5 15 1l72-65c4-4 4-11 0-15-2-2-5-3-7-3z m-144 0c-2 0-5 1-7 3-4 4-4 11 0 15l72 65c4 4 11 3 15-1 4-4 4-11-1-15l-71-65c-2-2-5-2-8-2z m317 229l-236 0c-6 0-11 5-11 11 0 6 5 11 11 11l236 0c6 0 11-5 11-11 0-6-5-11-11-11z m-80 0c-2 0-5 1-7 3-4 4-5 11-1 15l65 72c4 4 11 4 15 0 4-4 5-10 1-15l-65-71c-2-2-5-4-8-4z m65-71c-3 0-6 1-8 3l-65 72c-4 4-3 11 1 15 4 4 11 4 15-1l65-71c4-5 3-12-1-15-2-2-5-3-7-3z m-475 71c-6 0-11 5-11 11 0 6 5 11 11 11l236 0c6 0 11-5 11-11 0-6-5-11-11-11z m15-71c-2 0-5 1-7 3-4 4-5 10-1 15l65 71c4 5 11 5 15 1 5-4 5-11 1-15l-65-72c-2-2-5-3-8-3z m65 71c-3 0-6 2-8 4l-65 71c-4 5-3 11 1 15 4 4 11 4 15 0l65-72c4-4 3-11-1-15-2-2-4-3-7-3z m-44-209c-3 0-6 1-8 3-4 4-4 11 0 15l419 419c4 4 11 4 15 0 4-4 4-11 0-15l-419-419c-2-2-5-3-7-3z m419 0c-3 0-6 1-8 3l-419 419c-4 4-4 11 0 15 4 4 11 4 15 0l419-419c4-4 4-11 0-15-2-2-5-3-7-3z"/>
<glyph unicode="&#102;" d="M349 2c-25 0-46 21-46 47l0 319c0 27-21 49-47 49-26 0-47-22-47-49 0-26-21-47-46-47-26 0-47 21-47 47 0 78 63 142 140 142 77 0 140-64 140-142l0-319c0-26-21-47-47-47z m-93 436c38 0 68-31 68-70l0-319c0-14 12-26 25-26 14 0 26 12 26 26l0 319c0 66-53 121-119 121-65 0-119-55-119-121 0-14 12-26 26-26 13 0 25 12 25 26 0 39 30 70 68 70z m-121-53c-4 0-7 1-9 5-3 5-2 12 4 14l163 95c5 3 11 1 14-4 3-5 1-11-4-14l-163-95c-1-1-3-1-5-1z m163 18c-4 0-7 2-9 5-3 5-1 12 4 15l59 34c5 3 11 1 14-4 3-5 1-12-4-15l-59-34c-1-1-3-1-5-1z m23-65c-4 0-7 2-9 5-3 5-1 12 4 15l59 34c5 3 11 1 14-4 3-5 1-12-4-15l-59-34c-1-1-3-1-5-1z m0-84c-4 0-7 2-9 5-3 5-1 12 4 15l59 34c5 3 11 1 14-4 3-5 1-12-4-15l-59-34c-1-1-3-1-5-1z m-4-103c-4 0-7 2-9 6-3 5-2 11 4 14l59 34c5 3 11 2 14-4 3-5 1-11-4-14l-59-34c-1-1-3-2-5-2z m0-97c-4 0-7 2-9 6-3 5-2 11 4 14l59 34c5 3 11 1 14-4 3-5 1-11-4-14l-59-34c-1-1-3-2-5-2z"/>
<glyph unicode="&#103;" d="M56 385c-4 0-8 1-10 5-3 5-1 12 4 14l163 95c5 3 12 1 15-4 3-5 1-11-4-14l-163-95c-2-1-4-1-5-1z m163 18c-4 0-8 2-10 5-2 5-1 12 4 15l59 34c5 3 12 1 15-4 3-5 1-12-4-15l-59-34c-2-1-3-1-5-1z m23-65c-4 0-8 2-9 5-3 5-2 12 3 15l59 34c5 3 12 1 15-4 3-5 1-12-4-15l-59-34c-2-1-3-1-5-1z m0-84c-4 0-7 2-9 5-3 5-2 12 3 15l59 34c5 3 12 1 15-4 3-5 1-12-4-15l-59-34c-2-1-3-1-5-1z m-2-200c-4 0-7 2-9 6-3 5-2 11 3 14l59 34c5 3 12 1 15-4 3-5 1-11-4-14l-59-34c-2-1-3-2-5-2z m29 70c-34 0-63 28-63 63 0 35 29 63 63 63 35 0 63-28 63-63 0-35-28-63-63-63z m0 104c-23 0-41-18-41-41 0-23 18-42 41-42 23 0 42 19 42 42 0 23-19 41-42 41z m48-4l-21 0 0 144c0 66-54 121-119 121-66 0-119-55-119-121 0-14 11-26 25-26 14 0 26 12 26 26 0 39 30 70 68 70 37 0 68-31 68-70l0-142-21 0 0 142c0 27-21 49-47 49-26 0-47-22-47-49 0-26-21-47-47-47-25 0-46 21-46 47 0 78 63 142 140 142 77 0 140-64 140-142z m-47-222c-25 0-46 21-46 47l0 99 21 0 0-99c0-14 11-26 25-26 14 0 26 12 26 26l0 101 21 0 0-101c0-26-21-47-47-47z m-166 110c-8 0-15 1-21 5-7 3-16 11-19 27-3 15-2 28 0 42 1 7 2 14 2 22 0 2 0 5 0 8-1 11-1 23 3 33 6 18 22 17 32 16l4 0c12-1 24-5 35-9 3-1 7-2 10-3 6-2 11-4 17-7 4-2 7-3 12-5 29-11 45-17 50-20l-11-18c-2 1-11 5-47 18-4 2-9 4-13 6-5 2-10 4-15 6-3 1-6 2-9 3-11 4-21 7-30 7l-5 1c-9 0-9 0-10-3-3-6-2-15-2-24 0-3 0-6 0-9 0-9-1-17-2-25-1-12-3-23 0-35 1-6 4-10 8-13 7-3 18-3 31 2 6 2 12 4 17 6 11 4 23 8 34 13 4 2 9 3 14 4 6 2 12 4 17 7l12-17c-7-6-16-8-24-10-4-1-8-2-11-4-12-5-23-9-34-13-6-2-12-4-18-6-9-4-18-5-27-5z m329 0c-8 0-17 1-27 5-5 2-11 4-17 6-11 4-23 8-35 13-3 1-7 3-11 4-8 2-17 4-24 10l13 17c4-3 10-5 17-7 4-1 9-2 14-4 11-5 22-9 33-13 6-2 12-4 18-6 12-5 24-5 30-2 5 3 7 7 9 13 2 12 1 23-1 35-1 8-2 16-2 24 0 4 0 7 1 10 0 9 0 18-2 24-1 3-1 3-11 3l-4-1c-10 0-20-3-30-7-3-1-7-2-10-3-5-2-9-4-14-6-5-2-9-4-14-6-25-9-43-16-47-18l-10 18c6 4 31 13 50 20 4 2 8 3 12 5 5 3 11 5 17 7 3 1 6 2 9 3 11 4 23 8 36 9l4 0c10 1 25 2 32-16 4-10 3-22 3-33 0-3 0-6 0-8 0-8 0-15 1-23 2-13 4-26 0-41-3-16-12-24-18-27-7-4-14-5-22-5z"/>
<glyph unicode="&#104;" d="M256 172c-46 0-84 38-84 84 0 46 38 84 84 84 46 0 84-38 84-84 0-46-38-84-84-84z m0 146c-34 0-62-28-62-62 0-34 28-62 62-62 34 0 62 28 62 62 0 34-28 62-62 62z m0 18c-6 0-11 5-11 11l0 154c0 6 5 11 11 11 6 0 11-5 11-11l0-154c0-6-5-11-11-11z m0 74c-3 0-5 1-7 3l-72 65c-4 4-4 11 0 15 4 4 10 5 15 1l71-65c5-4 5-11 1-15-2-2-5-4-8-4z m0 0c-3 0-6 2-8 4-4 4-4 11 1 15l71 65c5 4 11 3 15-1 4-4 4-11 0-15l-72-65c-2-2-4-3-7-3z m0-410c-6 0-11 5-11 11l0 154c0 6 5 11 11 11 6 0 11-5 11-11l0-154c0-6-5-11-11-11z m72 16c-3 0-6 0-8 2l-71 65c-5 4-5 11-1 15 4 4 11 5 15 1l72-65c4-4 4-11 0-15-2-2-5-3-7-3z m-144 0c-2 0-5 1-7 3-4 4-4 11 0 15l72 65c4 4 11 3 15-1 4-4 4-11-1-15l-71-65c-2-2-5-2-8-2z m317 229l-154 0c-6 0-11 5-11 11 0 6 5 11 11 11l154 0c6 0 11-5 11-11 0-6-5-11-11-11z m-80 0c-3 0-5 1-7 3-4 4-5 11-1 15l65 72c4 4 11 4 15 0 4-3 5-10 1-15l-65-71c-2-2-5-4-8-4z m65-71c-3 0-6 1-8 3l-65 72c-4 4-3 11 1 15 4 4 11 4 15-1l65-71c4-5 3-11-1-15-2-2-5-3-7-3z m-321 71l-154 0c-6 0-11 5-11 11 0 6 5 11 11 11l154 0c6 0 11-5 11-11 0-6-5-11-11-11z m-139-71c-2 0-5 1-7 3-4 4-5 10-1 15l65 71c4 5 11 5 15 1 4-4 5-11 1-15l-65-72c-2-2-5-3-8-3z m65 71c-3 0-6 2-8 4l-65 71c-4 5-3 12 1 15 4 4 11 4 15 0l65-72c4-4 3-11-1-15-2-2-4-3-7-3z"/>
<glyph unicode="&#105;" d="M256 139c-31 0-61 12-83 34-22 22-34 52-34 83 0 31 12 61 34 83 22 22 52 34 83 34 31 0 61-12 83-34 45-46 45-120 0-166-22-22-52-34-83-34z m0 213c-26 0-50-10-68-28-18-18-28-42-28-68 0-26 10-50 28-68 18-18 42-28 68-28 25 0 50 10 68 28 37 38 37 98 0 136-18 18-43 28-68 28z m100-7c-3 0-6 1-8 3-4 4-4 11 0 15l98 98c5 5 11 5 15 0 5-4 5-10 0-15l-98-98c-2-2-5-3-7-3z m33 33c-6 0-10 5-11 11l-5 110c0 5 4 10 10 11 6 0 11-4 11-10l6-110c0-6-4-11-10-12-1 0-1 0-1 0z m110-5c0 0 0 0 0 0l-110 5c-6 1-11 6-11 12 1 6 5 10 12 10l110-6c5 0 10-5 10-11-1-6-5-10-11-10z m-441-326c-3 0-5 1-8 4-4 4-4 10 0 15l99 98c4 4 11 4 15 0 4-4 4-11 0-15l-98-98c-2-3-5-4-8-4z m70-45c-5 0-10 5-10 10l-6 110c0 6 4 11 10 12 6 0 11-5 11-11l6-110c0-5-4-10-10-11 0 0-1 0-1 0z m-5 110c0 0-1 0-1 0l-110 6c-6 0-10 5-10 11 1 6 6 10 11 10l110-5c6-1 11-6 10-12 0-5-5-10-10-10z m331-65c-3 0-6 1-8 4l-98 98c-4 4-4 11 0 15 4 4 11 4 15 0l98-98c5-5 5-11 0-15-2-3-4-4-7-4z m-65 65c-6 0-10 5-11 10 0 6 5 11 11 12l110 5c6 0 10-4 11-10 0-6-5-11-10-11l-110-6c-1 0-1 0-1 0z m-5-110c-1 0-1 0-1 0-6 1-10 6-10 11l5 110c1 6 6 11 12 11 5-1 10-6 10-12l-6-110c0-5-5-10-10-10z m-228 343c-2 0-5 1-7 3l-99 98c-4 5-4 11 0 15 5 5 11 5 16 0l98-98c4-4 4-11 0-15-2-2-5-3-8-3z m-143 28c-6 0-10 4-11 10 0 6 5 11 10 11l110 6c6 0 11-4 11-10 1-6-4-11-10-12l-110-5c0 0 0 0 0 0z m110 5c0 0-1 0-1 0-6 1-10 6-10 12l6 110c0 5 5 10 11 10 6-1 10-6 10-11l-6-110c0-6-5-11-10-11z m376-133l-121 0c-5 0-10 5-10 11 0 6 5 11 10 11l121 0c6 0 11-5 11-11 0-6-5-11-11-11z m-79 0c-3 0-5 1-7 3-5 4-5 11-1 15l64 71c4 4 11 5 15 1 4-4 5-11 1-15l-64-71c-3-2-5-4-8-4z m64-71c-3 0-6 2-8 4l-64 71c-4 4-4 11 1 15 4 4 11 4 15-1l64-71c4-4 3-11-1-15-2-2-5-3-7-3z m-471 71c-6 0-11 5-11 11 0 6 5 11 11 11l121 0c5 0 10-5 10-11 0-6-5-11-10-11z m15-71c-2 0-5 1-7 3-4 4-5 11-1 15l64 71c4 5 11 5 16 1 4-4 4-11 0-15l-64-71c-2-2-5-4-8-4z m64 71c-3 0-5 2-8 4l-64 71c-4 4-3 11 1 15 4 4 11 3 15-1l64-71c4-4 4-11 0-15-2-2-5-3-8-3z m164-243c-6 0-11 5-11 11l0 121c0 5 5 10 11 10 6 0 11-5 11-10l0-121c0-6-5-11-11-11z m71 16c-3 0-5 0-7 2l-71 64c-5 4-5 11-1 16 4 4 11 4 15 0l71-64c4-4 5-11 1-15-2-2-5-3-8-3z m-142 0c-3 0-6 1-8 3-4 4-3 11 1 15l71 64c4 4 11 4 15 0 4-5 4-12-1-16l-71-64c-2-2-4-2-7-2z m71 350c-6 0-11 5-11 10l0 121c0 6 5 11 11 11 6 0 11-5 11-11l0-121c0-5-5-10-11-10z m0 41c-3 0-5 1-7 3l-71 64c-5 4-5 11-1 15 4 4 11 5 15 1l71-64c5-4 5-11 1-16-2-2-5-3-8-3z m0 0c-3 0-6 1-8 3-4 5-4 12 1 16l71 64c4 4 11 3 15-1 4-4 3-11-1-15l-71-64c-2-2-4-3-7-3z"/>
<glyph unicode="&#106;" d="M256 5c-104 0-189 84-189 188 0 104 85 189 189 189 50 0 98-20 133-56 36-35 56-82 56-133 0-104-85-188-189-188z m0 355c-92 0-167-75-167-167 0-92 75-167 167-167 92 0 167 75 167 167 0 92-75 167-167 167z m100-29c-6 0-11 4-11 10l0 76-178 0 0-76c0-6-5-10-10-10-6 0-11 4-11 10l0 86c0 6 5 11 11 11l199 0c5 0 10-5 10-11l0-86c0-6-5-10-10-10z m-31 91c-6 0-11 5-11 11 0 29-26 53-58 53-32 0-58-24-58-53 0-6-5-11-11-11-6 0-10 5-10 11 0 41 35 74 79 74 44 0 79-33 79-74 0-6-4-11-10-11z"/>
<glyph unicode="&#107;" d="M256 142c-24 0-44 20-44 45 0 24 20 44 44 44 24 0 44-20 44-44 0-25-20-45-44-45z m0 68c-13 0-23-11-23-23 0-13 10-23 23-23 13 0 23 10 23 23 0 12-10 23-23 23z m0 8c-6 0-11 4-11 10l0 71c0 6 5 11 11 11 6 0 11-5 11-11l0-71c0-6-5-10-11-10z m0 34c-3 0-5 1-7 3l-33 29c-4 4-5 11-1 15 4 5 11 5 15 1l33-30c5-4 5-10 1-15-2-2-5-3-8-3z m0 0c-3 0-6 1-8 3-4 5-4 11 1 15l33 30c4 4 11 4 15-1 4-4 3-11-1-15l-33-29c-2-2-4-3-7-3z m0-189c-6 0-11 5-11 11l0 71c0 6 5 11 11 11 6 0 11-5 11-11l0-71c0-6-5-11-11-11z m33 7c-3 0-5 1-7 3l-33 30c-5 4-5 11-1 15 4 4 11 5 15 1l33-30c4-4 5-11 1-15-2-2-5-4-8-4z m-66 0c-3 0-6 2-8 4-4 4-3 11 1 15l33 30c4 4 11 3 15-1 4-4 4-11-1-15l-33-30c-2-2-4-3-7-3z m146 106l-71 0c-6 0-11 5-11 11 0 6 5 10 11 10l71 0c6 0 10-4 10-10 0-6-4-11-10-11z m-37 0c-3 0-5 1-7 3-5 4-5 10-1 15l30 33c4 4 10 4 15 0 4-4 4-10 0-15l-29-32c-2-3-5-4-8-4z m30-33c-3 0-6 1-8 4l-30 33c-4 4-4 11 1 15 4 4 11 3 15-1l29-33c4-4 4-11 0-15-2-2-5-3-7-3z m-148 33l-71 0c-6 0-10 5-10 11 0 6 4 10 10 10l71 0c6 0 11-4 11-10 0-6-5-11-11-11z m-64-33c-2 0-5 1-7 3-4 4-4 11 0 15l29 33c4 4 11 5 15 1 5-4 5-11 1-15l-30-33c-2-3-5-4-8-4z m30 33c-3 0-6 1-8 4l-29 32c-4 5-4 11 0 15 5 4 11 4 15 0l30-33c4-5 4-11-1-15-2-2-4-3-7-3z m76-175c-105 0-191 86-191 191 0 106 86 191 191 191 51 0 99-20 135-56 36-36 56-84 56-135 0-105-86-191-191-191z m0 361c-94 0-170-76-170-170 0-93 76-169 170-169 94 0 170 76 170 169 0 94-76 170-170 170z m101-30c-6 0-11 4-11 10l0 77-180 0 0-77c0-6-5-10-11-10-6 0-10 4-10 10l0 88c0 6 4 10 10 10l202 0c6 0 11-4 11-10l0-88c0-6-5-10-11-10z m-31 92c-6 0-11 5-11 11 0 30-27 54-59 54-33 0-59-24-59-54 0-6-5-11-11-11-6 0-10 5-10 11 0 42 36 76 80 76 44 0 80-34 80-76 0-6-4-11-10-11z"/>
<glyph unicode="&#108;" d="M256 139c-64 0-117 53-117 117 0 64 53 117 117 117 65 0 117-53 117-117 0-64-52-117-117-117z m0 213c-53 0-96-43-96-96 0-53 43-96 96-96 53 0 96 43 96 96 0 53-43 96-96 96z m80-27c-3 0-6 1-8 3-4 4-4 11 0 15l49 49c4 4 11 4 15 0 4-4 4-11 0-15l-49-49c-2-2-5-3-7-3z m-208-208c-3 0-6 1-8 3-4 4-4 11 0 15l49 49c4 4 11 4 15 0 4-4 4-11 0-15l-49-49c-2-2-5-3-7-3z m256 0c-2 0-5 1-7 3l-49 49c-4 4-4 11 0 15 4 4 11 4 15 0l49-49c4-4 4-11 0-15-2-2-5-3-8-3z m-208 208c-2 0-5 1-7 3l-49 49c-4 4-4 11 0 15 4 4 11 4 15 0l49-49c4-4 4-11 0-15-2-2-5-3-8-3z m80 43c-6 0-11 5-11 10l0 121c0 6 5 11 11 11 6 0 11-5 11-11l0-121c0-5-5-10-11-10z m0 41c-3 0-5 1-7 3l-71 64c-4 4-5 11-1 15 4 4 11 5 15 1l71-64c5-4 5-11 1-16-2-2-5-3-8-3z m0 0c-3 0-6 1-8 3-4 5-3 12 1 16l71 64c4 4 11 3 15-1 4-4 3-11-1-15l-71-64c-2-2-4-3-7-3z m0-407c-6 0-11 5-11 11l0 121c0 6 5 10 11 10 6 0 11-4 11-10l0-121c0-6-5-11-11-11z m71 16c-3 0-5 0-7 2l-71 64c-4 4-5 11-1 16 4 4 11 4 15 0l71-64c4-4 5-11 1-15-2-2-5-3-8-3z m-142 0c-3 0-6 1-8 3-4 4-3 11 1 15l71 64c4 4 11 4 15 0 4-5 4-12-1-16l-71-64c-2-2-4-2-7-2z m314 227l-121 0c-5 0-10 5-10 11 0 6 5 11 10 11l121 0c6 0 11-5 11-11 0-6-5-11-11-11z m-79 0c-3 0-6 1-8 3-4 4-4 11 0 15l64 71c4 4 11 5 15 1 4-4 5-11 1-15l-64-71c-3-2-5-4-8-4z m64-71c-3 0-6 2-8 4l-64 71c-4 4-4 11 0 15 5 4 12 4 16-1l64-71c4-4 3-11-1-15-2-2-5-3-7-3z m-350 71l-121 0c-6 0-11 5-11 11 0 6 5 11 11 11l121 0c5 0 10-5 10-11 0-6-5-11-10-11z m-106-71c-2 0-5 1-7 3-4 4-5 11-1 15l65 71c3 5 10 5 15 1 4-4 4-11 0-15l-64-71c-2-2-5-4-8-4z m64 71c-3 0-5 2-8 4l-64 71c-4 4-3 11 1 15 4 4 11 3 15-1l64-71c4-4 4-11 0-15-2-2-5-3-8-3z"/>
<glyph unicode="&#109;" d="M501 245l-156 0c-5 0-10 5-10 11 0 6 5 11 10 11l156 0c6 0 11-5 11-11 0-6-5-11-11-11z m-334 0l-156 0c-6 0-11 5-11 11 0 6 5 11 11 11l156 0c5 0 10-5 10-11 0-6-5-11-10-11z m89-245c-6 0-11 5-11 11l0 156c0 5 5 10 11 10 6 0 11-5 11-10l0-156c0-6-5-11-11-11z m0 335c-6 0-11 5-11 10l0 156c0 6 5 11 11 11 6 0 11-5 11-11l0-156c0-5-5-10-11-10z m173-263c-2 0-5 1-7 3l-110 110c-4 4-4 11 0 15 4 4 11 4 15 0l110-110c4-4 4-11 0-15-2-2-5-3-8-3z m-236 237c-3 0-6 1-8 3l-110 110c-4 4-4 11 0 15 4 4 11 4 15 0l110-110c4-4 4-11 0-15-2-2-4-3-7-3z m-110-237c-3 0-6 1-8 3-4 4-4 11 0 15l110 110c4 4 11 4 15 0 4-4 4-11 0-15l-110-110c-2-2-5-3-7-3z m236 237c-3 0-5 1-7 3-4 4-4 11 0 15l110 110c4 4 11 4 15 0 4-4 4-11 0-15l-110-110c-2-2-5-3-8-3z m-63-153c-55 0-100 45-100 100 0 55 45 100 100 100 12 0 23-2 34-6 40-14 66-52 66-94 0-55-45-100-100-100z m0 179c-43 0-79-36-79-79 0-43 36-79 79-79 43 0 79 36 79 79 0 33-21 63-52 74-9 3-18 5-27 5z m159-147c-2 0-3 0-4 0l-73 27c-5 2-8 8-6 13 2 6 8 9 13 7l73-27c6-2 9-8 7-13-2-5-6-7-10-7z m-245 88c-1 0-2 1-3 1l-73 27c-6 2-9 8-7 13 2 6 9 9 14 7l73-27c6-2 8-8 6-14-1-4-5-7-10-7z m28-189c-1 0-2 0-3 0-6 2-9 9-7 14l27 73c2 6 8 9 14 7 5-2 8-9 6-14l-27-73c-1-5-5-7-10-7z m89 244c-1 0-2 1-3 1-6 2-9 8-7 14l27 72c2 6 8 9 13 7 6-2 9-9 7-14l-27-73c-1-4-5-7-10-7z m40-239c-4 0-7 3-9 7l-34 72c-2 5 0 11 5 14 6 2 12 0 14-5l34-72c3-6 0-12-5-15-2 0-3-1-5-1z m-109 234c-4 0-8 3-9 6l-34 72c-3 6 0 12 5 15 5 2 12 0 14-6l34-71c2-6 0-12-5-15-2 0-3-1-5-1z m-115-152c-4 0-8 2-10 6-2 5 0 12 6 14l71 34c5 2 11 0 14-6 2-5 0-11-5-14l-71-33c-2-1-3-1-5-1z m236 110c-4 0-8 2-10 6-2 6 0 12 5 14l70 33c6 3 12 0 15-5 2-5 0-12-6-14l-70-33c-1-1-3-1-4-1z"/>
<glyph unicode="&#110;" d="M256 1c-105 0-191 86-191 191 0 106 86 191 191 191 51 0 99-20 135-56 36-36 56-84 56-135 0-105-86-191-191-191z m0 361c-94 0-170-76-170-170 0-93 76-169 170-169 94 0 170 76 170 169 0 94-76 170-170 170z m101-30c-6 0-11 4-11 10l0 77-180 0 0-77c0-6-5-10-11-10-6 0-10 4-10 10l0 88c0 6 4 10 10 10l202 0c6 0 11-4 11-10l0-88c0-6-5-10-11-10z m-31 92c-6 0-11 5-11 11 0 30-27 54-59 54-33 0-59-24-59-54 0-6-5-11-11-11-6 0-10 5-10 11 0 42 36 76 80 76 44 0 80-34 80-76 0-6-4-11-10-11z m-52-136c0-10-8-18-18-18-10 0-18 8-18 18 0 10 8 18 18 18 10 0 18-8 18-18z m0-191c0-10-8-19-18-19-10 0-18 9-18 19 0 10 8 18 18 18 10 0 18-8 18-18z m78 77c-10 0-19 8-19 18 0 10 9 18 19 18 10 0 18-8 18-18 0-10-8-18-18-18z m-96 0c-10 0-18 8-18 18 0 10 8 18 18 18 10 0 18-8 18-18 0-10-8-18-18-18z m-96 0c-10 0-18 8-18 18 0 10 8 18 18 18 10 0 19-8 19-18 0-10-9-18-19-18z"/>
<glyph unicode="&#111;" d="M256 2c-124 0-226 69-226 153 0 56 43 161 106 228 2 2 5 4 8 4l224 0c3 0 6-2 8-4 63-67 106-172 106-228 0-84-102-153-226-153z m-107 363c-58-63-97-160-97-210 0-72 91-132 204-132 113 0 204 60 204 132 0 50-39 147-97 210l-214 0z m216 39l-219 0c-3 0-7 2-9 5l-48 85c-2 3-2 7 0 11 2 3 6 5 10 5l315 0c4 0 7-2 9-5 2-4 2-8 0-11l-49-85c-2-3-5-5-9-5z m-212 21l206 0 36 64-278 0z m163-333c-2 0-4 1-5 2l-65 39-65-39c-4-2-8-2-12 0-3 3-5 7-4 11l17 74-57 50c-3 3-4 7-3 11 1 4 5 7 9 7l76 7 29 70c2 4 6 6 10 6 4 0 8-2 10-6l29-70 76-7c4 0 8-3 9-7 1-4 0-8-3-11l-58-50 17-72c1-1 1-2 1-4 0-6-5-11-11-11 0 0 0 0 0 0z m-158 136l43-37c3-3 4-7 3-10l-12-56 48 30c4 2 8 2 11 0l49-30-13 56c-1 3 1 7 4 10l43 37-57 5c-4 1-7 3-9 7l-22 52-22-52c-2-4-5-6-9-7z"/>
<glyph unicode="&#112;" d="M403 69l-294 0c-4 0-8 2-9 6-2 4-1 9 1 12l74 83-41 0c-4 0-8 2-10 6-2 3-1 8 1 11l75 92-24 0c-4 0-8 2-10 6-2 4-1 9 3 12l80 75c4 4 10 4 14 0l79-74c3-2 5-5 5-9 0-6-5-10-11-10 0 0 0 0 0 0l-24 0 73-91c3-2 4-5 4-8 0-6-5-10-10-10-1 0-1 0-1 0l-41 0 74-83c2-3 3-8 1-12-1-4-5-6-9-6z m-270 21l246 0-74 83c-2 3-3 8-1 12 1 3 5 6 9 6l43 0-74 92c-3 3-4 7-2 11 2 4 6 6 10 6l19 0-53 49-53-49 19 0c4 0 8-2 10-6 2-4 1-8-2-11l-74-92 43 0c4 0 8-3 9-6 2-4 1-9-1-12z m160-88l-74 0c-5 0-10 5-10 11l0 67c0 6 5 10 10 10l74 0c5 0 10-4 10-10l0-67c0-6-5-11-10-11z m-63 21l52 0 0 46-52 0z m26 377l-40-24 10 45-35 31 47 4 18 43 18-43 47-4-35-31 10-45z"/>
<glyph unicode="&#113;" d="M459 95l-406 0c-4 0-8 2-10 6-2 4-1 8 2 12l108 121-66 0c-4 0-8 2-10 6-2 4-1 8 1 11l109 134-42 0c-4 0-8 3-10 7-1 4 0 9 3 12l111 103c4 4 10 4 14 0l110-102c3-2 5-6 5-9 0-6-5-11-11-11 0 0 0 0 0 0l-42 0 108-132c2-2 3-5 3-8 0-6-5-11-10-11 0 0-1 0-1 0l-66 0 108-122c3-3 4-7 2-11-2-4-6-6-10-6z m-382 21l358 0-108 122c-2 3-3 7-1 11 1 4 5 6 9 6l68 0-108 134c-3 3-4 8-2 11 2 4 6 6 10 6l37 0-84 79-84-79 37 0c4 0 8-2 10-6 2-3 1-8-2-11l-108-134 68 0c4 0 8-2 9-6 2-4 1-8-1-11z m230-114l-102 0c-6 0-10 5-10 11l0 92c0 6 4 11 10 11l102 0c6 0 10-5 10-11l0-92c0-6-4-11-10-11z m-91 21l80 0 0 72-80 0z"/>
<glyph unicode="&#114;" d="M256 0c-116 0-210 94-210 210 0 89 57 169 141 198 5 2 12-1 13-6 2-6-1-12-6-14-76-26-127-98-127-178 0-104 85-189 189-189 104 0 189 85 189 189 0 82-53 154-130 179-6 2-9 8-7 14 2 5 8 8 14 6 86-28 144-108 144-199 0-116-94-210-210-210z m-21 0c-2 0-4 0-6 2-78 47-70 124-70 128 1 6 6 10 12 9 6-1 10-6 9-12 0-2-6-67 60-107 6-3 7-10 4-15-2-3-5-5-9-5z m42 0c-4 0-7 2-9 5-3 5-2 12 4 15 66 40 60 105 60 107-1 6 3 11 9 12 6 1 11-3 12-9 0-4 8-81-70-128-2-2-4-2-6-2z m-16 343l-10 0c-38 0-69 31-69 69l0 27c0 0 0 1 0 1 0 6 5 10 10 10l128 0c5 0 10-4 10-10 0 0 0-1 0-1l0-27c0-38-31-69-69-69z m-58 86l0-17c0-26 22-48 48-48l10 0c26 0 48 22 48 48l0 17z m93 0c0 0 0 0-1 0-5 0-10 5-10 10 0 1 0 1 0 2l0 18c0 17-12 32-26 32l-6 0c-14 0-26-15-26-32l0-19c0-6-5-11-11-11-6 0-11 5-11 10l0 20c0 29 22 53 48 53l6 0c26 0 48-24 48-53l0-19c0 0 0-1 0-1-1-6-6-10-11-10z"/>
<glyph unicode="&#115;" d="M256 0c-116 0-210 94-210 210 0 89 57 169 141 198 5 2 12-1 13-6 2-6-1-12-6-14-76-26-127-98-127-178 0-104 85-189 189-189 104 0 189 85 189 189 0 82-53 154-130 179-6 2-9 8-7 14 2 5 8 8 14 6 86-28 144-108 144-199 0-116-94-210-210-210z m-21 148c-113 0-173 37-177 40-5 3-6 10-3 14 3 5 10 7 15 4 1-1 131-82 373 1 6 2 12-1 14-7 1-5-2-12-7-13-85-29-157-39-215-39z m1 90c-109 0-167 38-171 40-5 4-6 10-3 15 4 5 10 6 15 3 1-1 127-81 358 1 6 2 12-1 14-6 2-6-1-12-6-14-82-29-151-39-207-39z m-1-238c-2 0-4 0-6 2-78 47-70 124-70 128 1 6 6 10 12 9 6-1 10-6 9-12 0-2-6-67 60-107 6-3 7-10 4-15-2-3-5-5-9-5z m42 0c-4 0-7 2-9 5-3 5-2 12 4 15 66 40 60 105 60 107-1 6 3 11 9 12 6 1 11-3 12-9 0-4 8-81-70-128-2-2-4-2-6-2z m-16 343l-10 0c-38 0-69 31-69 69l0 27c0 0 0 1 0 1 0 6 5 10 10 10l128 0c5 0 10-4 10-10 0 0 0-1 0-1l0-27c0-38-31-69-69-69z m-58 86l0-17c0-26 22-48 48-48l10 0c26 0 48 22 48 48l0 17z m93 0c0 0 0 0-1 0-5 0-10 5-10 10 0 1 0 1 0 2l0 18c0 17-11 32-26 32l-6 0c-15 0-26-15-26-32l0-19c0-6-5-11-11-11-6 0-11 5-11 10l0 20c0 29 22 53 48 53l6 0c26 0 48-24 48-53l0-19c0 0 0-1 0-1-1-6-6-10-11-10z m-184-220c-2 0-3 1-5 1l-23 11c-5 3-8 9-5 14 2 6 9 8 14 6l23-11c6-3 8-9 6-15-2-3-6-6-10-6z m72-11c0 0 0 0-1 0l-36 4c-6 1-10 6-10 12 1 6 6 10 12 9l36-3c6-1 11-6 10-12-1-6-5-10-11-10z m82-4l-39 0c-6 0-11 5-11 11 0 6 5 11 11 11l39 0c5 0 10-5 10-11 0-6-5-11-10-11z m40 4c-6 0-10 4-11 10 0 6 4 11 10 12l36 3c6 1 11-3 12-9 1-6-4-11-10-12l-36-4c0 0-1 0-1 0z m74 11c-4 0-8 3-10 7-2 6 1 12 7 14l31 11c6 2 12-1 14-7 2-5-1-11-7-13l-31-11c-1-1-2-1-4-1z"/>
<glyph unicode="&#116;" d="M457 97l-402 0c-5 0-8 2-10 6-2 4-1 8 2 12l88 99-49 0c-4 0-8 3-9 7-2 4-1 8 2 11l96 93-48 8c-4 1-7 3-8 7-2 3-1 7 1 10l128 158c4 5 12 5 16 0l128-158c2-3 3-7 1-10-1-4-4-6-8-7l-48-8 95-91c3-2 4-6 4-9 0-6-4-11-10-11 0 0 0 0 0 0l-49 0 88-99c3-4 4-8 2-12-2-4-5-6-10-6z m-379 21l356 0-89 100c-3 3-3 7-2 11 2 4 6 6 10 6l46 0-92 90c-3 3-4 7-3 11 2 4 5 7 9 7l50 8-107 133-107-133 50-8c4 0 7-3 8-7 2-4 1-8-2-11l-92-90 46 0c4 0 8-2 10-6 1-4 1-8-2-11z m236-118l-116 0c-6 0-11 5-11 11l0 96c0 6 5 11 11 11l116 0c6 0 11-5 11-11l0-96c0-6-5-11-11-11z m-106 21l96 0 0 76-96 0z m62 154c0-16-12-28-28-28-15 0-27 12-27 28 0 15 12 27 27 27 16 0 28-12 28-27z m-1 88c0-8-6-14-13-14-7 0-14 6-14 14 0 7 7 13 14 13 7 0 13-6 13-13z m-27 115c0-7-6-13-14-13-7 0-13 6-13 13 0 8 6 14 13 14 8 0 14-6 14-14z m55 14c0-8-6-14-13-14-8 0-14 6-14 14 0 7 6 13 14 13 7 0 13-6 13-13z m60-231c0-7-6-13-13-13-8 0-14 6-14 13 0 8 6 14 14 14 7 0 13-6 13-14z"/>
<glyph unicode="&#117;" d="M256 315c-44 0-79 35-79 79 0 43 35 79 79 79 44 0 79-36 79-79 0-44-35-79-79-79z m0 136c-32 0-58-25-58-57 0-32 26-58 58-58 32 0 58 26 58 58 0 32-26 57-58 57z m-176-175c-44 0-78 52-78 118 0 66 34 117 78 117 26 0 94-22 137-56 4-4 5-11 1-15-3-5-10-5-15-2-40 32-103 52-123 52-31 0-57-44-57-96 0-52 26-96 57-96 20 0 78 18 116 46 5 3 12 2 15-2 4-5 2-12-2-15-43-31-105-51-129-51z m353 0c-25 0-86 20-130 51-4 3-5 10-2 15 3 4 10 5 15 2 38-28 96-46 117-46 30 0 56 44 56 96 0 52-26 96-56 96-21 0-84-20-124-52-5-3-11-3-15 2-4 4-3 11 1 15 43 34 111 56 138 56 43 0 77-51 77-117 0-66-34-118-77-118z m-263-275c-2 0-3 0-4 1-4 1-7 5-7 10l0 299c0 6 5 11 11 11 5 0 10-5 10-11l0-271 64 72c2 2 4 3 7 3 3 0 6-1 8-3l73-74 0 274c0 6 5 11 10 11 6 0 11-5 11-11l0-300c0-5-3-9-7-10-4-2-8-1-11 2l-83 85-74-84c-2-3-5-4-8-4z"/>
<glyph unicode="&#118;" d="M256 0c-116 0-210 94-210 210 0 89 57 169 141 198 5 2 12-1 13-6 2-6-1-12-6-14-76-26-127-98-127-178 0-104 85-189 189-189 104 0 189 85 189 189 0 82-53 154-130 179-6 2-9 8-7 14 2 5 8 8 14 6 86-28 144-108 144-199 0-116-94-210-210-210z m-21 148c-113 0-173 37-177 40-5 3-6 10-3 14 3 5 10 7 15 4 1-1 131-82 373 1 6 2 12-1 14-7 1-5-2-12-7-13-85-29-157-39-215-39z m1 90c-109 0-167 38-171 40-5 4-6 10-3 15 4 5 10 6 15 3 1-1 127-81 358 1 6 2 12-1 14-6 2-6-1-12-6-14-82-29-151-39-207-39z m-1-238c-2 0-4 0-6 2-78 47-70 124-70 128 1 6 6 10 12 9 6-1 10-6 9-12 0-2-6-67 60-107 6-3 7-10 4-15-2-3-5-5-9-5z m42 0c-4 0-7 2-9 5-3 5-2 12 4 15 66 40 60 107 60 107-1 6 3 11 9 12 6 1 11-3 12-9 0-4 8-81-70-128-2-2-4-2-6-2z m-16 343l-10 0c-38 0-69 31-69 69l0 27c0 0 0 1 0 1 0 6 5 10 10 10l128 0c5 0 10-4 10-10 0 0 0-1 0-1l0-27c0-38-31-69-69-69z m-58 86l0-17c0-26 22-48 48-48l10 0c26 0 48 22 48 48l0 17z m93 0c0 0 0 0-1 0-5 0-10 5-10 10 0 1 0 1 0 2l0 18c0 17-11 32-26 32l-6 0c-14 0-26-15-26-32l0-19c0-6-5-11-11-11-6 0-11 5-11 10l0 20c0 29 22 53 48 53l6 0c26 0 48-24 48-53l0-19c0 0 0-1 0-1-1-6-6-10-11-10z m-143-116c0-8-5-13-13-13-7 0-13 5-13 13 0 7 6 13 13 13 8 0 13-6 13-13z m52-13c0-8-5-13-13-13-7 0-13 5-13 13 0 7 6 13 13 13 8 0 13-6 13-13z m64-8c0-7-6-13-13-13-7 0-13 6-13 13 0 8 6 14 13 14 7 0 13-6 13-14z m0-191c0-7-6-13-13-13-7 0-13 6-13 13 0 7 6 13 13 13 7 0 13-6 13-13z m60 199c0-8-5-13-13-13-7 0-13 5-13 13 0 7 6 13 13 13 8 0 13-6 13-13z m53 19c0-8-6-13-13-13-7 0-13 5-13 13 0 7 6 13 13 13 7 0 13-6 13-13z"/>
<glyph unicode="&#119;" d="M256 0c-116 0-210 94-210 210 0 89 57 169 141 198 5 2 12-1 13-6 2-6-1-12-6-14-76-26-127-98-127-178 0-104 85-189 189-189 104 0 189 85 189 189 0 82-53 154-130 179-6 2-9 8-7 14 2 5 8 8 14 6 86-28 144-108 144-199 0-116-94-210-210-210z m-21 0c-2 0-4 0-6 2-78 47-70 124-70 128 1 6 6 10 12 9 6-1 10-6 9-12 0-2-6-67 60-107 6-3 7-10 4-15-2-3-5-5-9-5z m42 0c-4 0-7 2-9 5-3 5-2 12 4 15 66 40 60 105 60 107-1 6 3 11 9 12 6 1 11-3 12-9 0-4 8-81-70-128-2-2-4-2-6-2z m-16 343l-10 0c-38 0-69 31-69 69l0 27c0 0 0 1 0 1 0 6 5 10 10 10l128 0c5 0 10-4 10-10 0 0 0-1 0-1l0-27c0-38-31-69-69-69z m-58 86l0-17c0-26 22-48 48-48l10 0c26 0 48 22 48 48l0 17z m93 0c0 0 0 0-1 0-5 0-10 5-10 10 0 1 0 1 0 2l0 18c0 17-12 32-26 32l-6 0c-14 0-26-15-26-32l0-19c0-6-5-11-11-11-6 0-11 5-11 10l0 20c0 29 22 53 48 53l6 0c26 0 48-24 48-53l0-19c0 0 0-1 0-1-1-6-6-10-11-10z m-25-128c0-7-6-13-13-13-7 0-13 6-13 13 0 7 6 13 13 13 7 0 13-6 13-13z m-73 0c0-7-6-13-13-13-7 0-13 6-13 13 0 7 6 13 13 13 7 0 13-6 13-13z m146 0c0-7-6-13-13-13-7 0-13 6-13 13 0 7 6 13 13 13 7 0 13-6 13-13z m-73-78c0-8-6-13-13-13-7 0-13 5-13 13 0 7 6 13 13 13 7 0 13-6 13-13z m-75 0c0-8-6-13-13-13-7 0-13 5-13 13 0 7 6 13 13 13 7 0 13-6 13-13z m-75 0c0-8-5-13-13-13-7 0-13 5-13 13 0 7 6 13 13 13 8 0 13-6 13-13z m297 0c0-8-6-13-13-13-7 0-13 5-13 13 0 7 6 13 13 13 7 0 13-6 13-13z m-75 0c0-8-6-13-13-13-7 0-13 5-13 13 0 7 6 13 13 13 7 0 13-6 13-13z m-72-79c0-7-6-13-13-13-7 0-13 6-13 13 0 7 6 13 13 13 7 0 13-6 13-13z m0-79c0-7-6-13-13-13-7 0-13 6-13 13 0 8 6 13 13 13 7 0 13-5 13-13z"/>
<glyph unicode="&#120;" d="M258 148c-29 0-52 23-52 52 0 29 23 52 52 52 28 0 52-23 52-52 0-29-24-52-52-52z m0 83c-17 0-31-14-31-31 0-17 14-31 31-31 16 0 30 14 30 31 0 17-14 31-30 31z m-107-106c-29 0-51 33-51 75 0 42 22 75 51 75 17 0 59-13 85-35 5-3 6-10 2-15-4-4-10-5-15-1-23 18-60 30-72 30-14 0-30-22-30-54 0-32 16-54 30-54 10 0 44 10 68 27 5 4 11 3 15-2 3-5 2-12-3-15-25-18-63-31-80-31z m213 0c-17 0-55 13-80 31-5 3-6 10-3 15 4 5 10 6 15 2 24-17 58-27 68-27 14 0 30 22 30 54 0 32-16 54-30 54-12 0-49-12-72-30-4-4-11-3-15 1-4 5-3 12 2 15 26 22 68 35 85 35 29 0 51-33 51-75 0-42-22-75-51-75z m-159-123c-1 0-2 0-4 1-4 1-6 5-6 10l0 137c0 6 4 11 10 11 6 0 11-5 11-11l0-109 31 35c2 2 5 4 8 4 2 0 5-1 8-3l36-38 0 112c0 5 5 10 11 10 6 0 10-5 10-10l0-138c0-5-2-9-6-10-4-2-9-1-12 2l-47 48-42-47c-2-3-5-4-8-4z m200 206c-2 0-4 1-6 2-5 3-6 10-3 15 19 28 29 61 29 95 0 93-76 169-169 169-93 0-169-76-169-169 0-34 10-67 29-95 3-5 2-11-3-15-5-3-12-2-15 3-21 32-32 68-32 107 0 105 85 190 190 190 105 0 190-85 190-190 0-39-11-76-32-107-2-3-6-5-9-5z m-206 32c-3 0-5 1-7 3-23 19-36 47-36 77 0 55 45 99 100 99 55 0 100-44 100-99 0-30-13-58-35-77-5-4-12-3-16 1-3 5-3 12 2 16 17 14 28 36 28 60 0 43-36 78-79 78-43 0-79-35-79-78 0-24 11-46 28-61 5-4 6-10 2-15-2-2-5-4-8-4z"/>
<glyph unicode="&#121;" d="M269 361l-127 0c-34 0-63 28-63 62l0 27c0 34 29 62 63 62l127 0c35 0 63-28 63-62l0-27c0-16-7-32-19-44-12-11-27-18-44-18z m-127 130c-23 0-42-19-42-41l0-27c0-22 19-40 42-40l127 0c23 0 42 18 42 40l0 27c0 22-19 41-42 41z m213-491c-32 0-57 22-59 23l-177 143c-3 2-4 5-4 9l0 196c0 6 5 10 11 10 5 0 10-4 10-10l0-191 174-141c1 0 23-20 50-17 15 1 28 10 40 25 9 12 13 23 11 36-4 30-34 54-35 54l-93 72c-3 2-4 6-4 9l0 155c0 6 4 11 10 11 6 0 11-5 11-11l0-150 89-69c2-1 38-30 43-68 3-19-2-36-15-52-16-20-34-32-56-34-2 0-4 0-6 0z m-65 31c-2 0-5 1-7 3-4 3-4 10 0 15l92 104c4 4 11 4 15 0 4-3 5-10 1-15l-93-104c-2-2-5-3-8-3z m-93 82c-1 0-1 0-2 0-6 1-10 7-8 12 22 116-61 139-64 139-6 2-9 8-8 13 2 6 7 10 13 8 1 0 106-29 80-164-2-5-6-8-11-8z"/>
<glyph unicode="&#122;" d="M257 0c-116 0-210 94-210 210 0 89 57 169 141 198 5 2 11-1 13-6 2-6-1-12-6-14-76-26-127-98-127-178 0-104 85-189 189-189 50 0 98 20 133 56 36 35 56 83 56 133 0 82-53 154-130 179-6 2-9 8-7 14 2 5 8 8 13 6 87-28 145-108 145-199 0-56-22-109-62-149-39-39-92-61-148-61z m-24 161c-131 0-200 37-204 40-5 3-7 9-4 14 2 5 9 7 14 4 2-1 154-82 436 1 6 2 12-1 13-7 2-6-1-12-7-13-98-29-181-39-248-39z m3-161c-2 0-4 0-6 2-78 47-70 124-70 128 1 6 6 10 12 9 6-1 10-6 9-12 0-2-6-67 60-107 5-3 7-10 4-15-2-3-6-5-9-5z m42 0c-4 0-7 2-9 5-3 5-2 12 3 15 67 40 61 105 60 107 0 6 4 11 10 12 6 1 11-3 12-9 0-4 8-81-71-128-1-2-3-2-5-2z m-17 236l-28-16 7 31-24 21 32 3 13 29 12-29 32-3-24-21 7-31z m-124 18l-20-12 5 23-18 16 24 2 9 21 9-21 24-2-18-16 5-23z m239 0l-20-12 5 23-18 16 24 2 9 21 9-21 24-2-18-16 5-23z m-114 89l-10 0c-38 0-69 31-69 69l0 27c0 0 0 1 0 1 0 6 5 10 10 10l127 0c6 0 11-4 11-10 0 0 0-1 0-1l0-27c0-38-31-69-69-69z m-58 86l0-17c0-26 21-48 48-48l10 0c26 0 48 22 48 48l0 17z m93 0c0 0 0 0-1 0-5 0-10 5-10 10 0 1 0 1 0 2l0 18c0 17-12 32-26 32l-6 0c-14 0-26-15-26-32l0-19c0-6-5-11-11-11-6 0-11 5-11 10l0 20c0 29 22 53 48 53l6 0c26 0 48-24 48-53l0-19c0 0 0-1-1-1 0-6-5-10-10-10z"/>
<glyph unicode="&#65;" d="M480 0l-448 0c-18 0-32 14-32 32l0 86c0 17 14 32 32 32l448 0c18 0 32-15 32-32l0-86c0-18-14-32-32-32z m-448 128c-6 0-11-5-11-10l0-86c0-6 5-11 11-11l448 0c6 0 11 5 11 11l0 86c0 5-5 10-11 10z m421 6c-5 0-10 4-10 9-18 139-163 228-206 251-47-176-142-254-146-258-5-3-11-3-15 2-4 4-3 11 1 15 1 1 99 82 143 259 1 3 3 6 6 7 2 2 6 2 9 0 8-4 207-99 229-273 1-6-3-11-9-12-1 0-1 0-2 0z m-231 265c-30 0-54 25-54 56 0 32 24 57 54 57 30 0 55-25 55-57 0-31-25-56-55-56z m0 92c-18 0-33-16-33-36 0-19 15-35 33-35 19 0 34 16 34 35 0 20-15 36-34 36z"/>
<glyph unicode="&#66;" d="M361 2c-24 0-46 14-56 36l-46 103-55-107c-11-20-31-32-54-32-10 0-20 3-28 7-30 16-41 52-26 82l69 130 0 45-64 0c-34 0-61 27-61 60 0 34 27 61 61 61l86 0c-8 12-12 27-12 42 0 45 36 81 81 81 45 0 81-36 81-81 0-15-4-30-12-42l86 0c34 0 61-27 61-61 0-33-27-60-61-60l-64 0 0-25 69-154c6-14 7-31 1-46-6-15-17-27-32-34-8-3-16-5-24-5z m-101 174c0 0 0 0 1 0 4 0 7-2 9-6l55-123c8-19 32-29 52-20 9 4 16 12 20 22 4 9 4 20-1 30l-69 155c-1 2-1 3-1 5l0 38c0 5 5 10 11 10l74 0c22 0 40 18 40 39 0 22-18 40-40 40l-109 0c-4 0-8 2-10 6-1 5 0 9 3 12 13 12 21 28 21 45 0 33-27 60-60 60-33 0-60-27-60-60 0-17 8-33 21-45 3-3 4-7 3-12-2-4-6-6-10-6l-109 0c-22 0-40-18-40-40 0-21 18-39 40-39l74 0c6 0 11-5 11-10l0-59c0-1 0-3-1-5l-70-132c-10-19-2-43 17-53 5-3 12-5 18-5 15 0 28 8 35 21l66 126c2 4 5 6 9 6z m-57-130c-1 0-3 0-4 1l-84 39c-5 3-7 9-5 15 3 5 9 7 14 5l84-40c5-2 7-8 5-14-2-4-6-6-10-6z m112 0c-4 0-8 2-10 6-2 6 0 12 5 14l84 40c5 2 11 0 14-5 2-6 0-12-5-15l-84-39c-1-1-3-1-4-1z"/>
<glyph unicode="&#67;" d="M256 350c-45 0-81 36-81 81 0 45 36 81 81 81 45 0 81-36 81-81 0-45-36-81-81-81z m0 141c-33 0-60-27-60-60 0-33 27-60 60-60 33 0 60 27 60 60 0 33-27 60-60 60z m122-491l-233 0c-6 0-11 5-11 11l0 242c0 43 39 78 87 78l81 0c48 0 86-35 86-78l0-242c0-6-4-11-10-11z m-222 21l211 0 0 232c0 32-29 57-65 57l-81 0c-36 0-65-25-65-57z m105 71c-6 0-10 5-10 11l0 152c0 6 4 11 10 11 6 0 11-5 11-11l0-152c0-6-5-11-11-11z m38 120l-76 0c-5 0-10 5-10 10 0 6 5 11 10 11l76 0c6 0 11-5 11-11 0-5-5-10-11-10z m-165-6c-1 0-1 0-2 0-56 9-95 33-116 72-42 81 11 195 13 200 2 3 5 5 8 5 3 1 7 0 9-2l160-146c4-4 5-11 1-16-4-4-11-4-15 0l-149 136c-12-31-37-110-8-167 17-33 51-53 100-61 6-1 10-7 9-13-1-5-5-8-10-8z m244 0c-5 0-9 3-10 8-1 6 3 12 9 13 49 8 83 28 100 61 29 57 4 136-8 167l-149-136c-4-4-11-4-15 0-4 5-3 12 1 16l160 146c2 2 6 3 9 2 3 0 6-2 8-5 2-5 55-119 13-200-21-39-60-63-116-72-1 0-1 0-2 0z"/>
<glyph unicode="&#68;" d="M256 0c-87 0-158 67-158 149 0 38 15 74 43 102l15-15c-23-24-36-55-36-87 0-70 61-128 136-128 75 0 136 58 136 128 0 32-12 63-36 86l16 15c27-27 42-63 42-101 0-82-71-149-158-149z m90 227l-180 0c-30 0-55 20-55 45 0 24 25 44 55 44l180 0c30 0 55-20 55-44 0-25-25-45-55-45z m-180 68c-18 0-34-11-34-23 0-13 16-23 34-23l180 0c18 0 34 10 34 23 0 12-16 23-34 23z m-4 0c-2 0-4 0-6 2-5 4-6 10-2 15l93 119c4 4 10 5 15 2 5-4 6-11 2-15l-93-119c-2-3-5-4-9-4z m188 0c-4 0-7 1-9 4l-93 119c-4 4-3 11 2 15 5 3 11 2 15-2l93-119c4-5 3-11-2-15-2-2-4-2-6-2z m-131-128c0-5-4-10-10-10-5 0-10 5-10 10 0 6 5 11 10 11 6 0 10-5 10-11z m94 0c0-5-5-10-10-10-6 0-10 5-10 10 0 6 4 11 10 11 5 0 10-5 10-11z m-17-87l-83 0c-6 0-11 4-11 10 0 6 5 11 11 11l83 0c5 0 10-5 10-11 0-6-5-10-10-10z m-40 337c-26 0-47 22-47 48 0 26 21 47 47 47 26 0 47-21 47-47 0-26-21-48-47-48z m0 74c-14 0-26-12-26-26 0-15 12-26 26-26 14 0 26 11 26 26 0 14-12 26-26 26z m-175-419c-22 0-45 20-55 48-6 16-7 33-4 47 4 16 13 27 26 32 3 1 7 2 11 2 22 0 45-20 55-49 6-16 7-32 4-47-4-15-13-27-26-31-3-1-7-2-11-2z m-22 107c-1 0-3 0-4 0-8-3-11-12-12-17-2-10-1-22 3-34 8-23 24-35 35-35 1 0 3 0 4 1 8 3 11 11 12 16 2 10 1 23-3 35-8 22-24 34-35 34z m372-107c-4 0-8 1-11 2-13 4-22 16-26 31-3 15-2 31 4 47 10 29 33 49 55 49 4 0 8-1 11-2 13-5 22-16 26-32 3-14 2-31-4-47-10-28-33-48-55-48z m22 107c-11 0-27-12-35-34-4-12-5-25-3-35 1-5 4-13 12-16 1-1 3-1 5-1 10 0 26 12 34 35 4 12 5 24 3 34-1 5-4 14-12 17-1 0-3 0-4 0z"/>
<glyph unicode="&#69;" d="M221 295c-11 0-106 1-106 35 0 33 95 34 106 34 11 0 107-1 107-34 0-34-96-35-107-35z m-83 35c8-6 37-14 83-14 46 0 75 8 84 14-9 5-38 13-84 13-46 0-75-8-83-13z m83-216c-11 0-106 1-106 34l0 182c0 6 5 10 11 10 5 0 10-4 10-10l0-180c6-6 35-15 85-15 51 0 80 9 85 15l0 180c0 6 5 10 11 10 6 0 11-4 11-10l0-182c0-33-96-34-107-34z m35 251c-1 0-3 1-5 2-5 2-7 9-4 14 27 46-10 90-26 106-59-59-26-104-26-105 4-5 3-11-2-15-5-3-12-2-15 2 0 1-47 66 36 140 4 4 10 4 14 1 28-23 71-82 38-140-2-3-6-5-10-5z m-35-46c-6 0-10 5-10 11l0 72c0 6 4 11 10 11 6 0 11-5 11-11l0-72c0-6-5-11-11-11z m-77-268c-3 0-6 1-8 3-11 11-27 19-43 20-8 0-18 0-28 0-4 0-8-2-13-3-7-2-16-4-24-3-4 1-7 4-8 8-2 4 0 8 3 11 13 11 22 25 25 37 2 8 3 18 2 27 0 3-1 6-2 9-1 6-2 12-1 19 0 4 3 7 6 8 4 2 8 1 11-1 3-2 16-2 24-1 13 3 28 17 26 31 0 6 4 11 10 12 6 0 11-4 11-10 3-26-20-49-43-54 0 0-11-2-22-1 0-3 1-7 1-11 1-11 0-22-2-32-2-10-6-18-11-26 2 1 4 1 5 1 11 1 23 1 32 0 13-1 27-6 39-13 4 16 14 26 33 35 12 7 24 9 36 11 5 1 10 2 16 3 5 1 11-2 13-8 1-6-3-11-8-13-6-1-12-2-18-3-11-2-20-4-30-9-18-9-23-16-22-36 1-4-2-8-6-10-1-1-3-1-4-1z m235-51c-4 0-8 2-9 6-15 31-57 37-90 27-4-1-8 0-11 3-2 3-3 8-2 11 4 11 2 47-10 61-4 4-7 4-9 3-6-1-12 3-13 8-1 6 2 12 8 13 11 3 22-1 30-10 13-15 18-44 17-64 30 4 63-2 85-23 2 4 5 8 8 12 1 1 3 3 4 4 5 7 11 14 19 18 13 5 30 5 45 3-5 6-10 12-13 19-1 2-8 18-9 34-10-4-23-8-39-2-14 6-27 19-35 33-9-9-22-15-35-17-6-1-11 3-12 9 0 6 4 11 9 12 13 2 24 10 30 21 1 3 4 5 8 6 3 0 6 0 8-2 3-1 5-4 6-7 2-13 16-30 29-35 11-4 18-1 29 4 4 2 9 4 15 5 5 2 10 0 12-4 2-4 2-10-1-13-4-4-2-21 5-35 4-10 13-20 22-28 4-4 7-8 10-12 3-4 4-9 1-13-3-4-8-5-12-4-21 7-50 12-64 6-3-1-8-7-12-11-1-2-3-4-4-6-8-8-9-14-9-21 0-5-3-10-8-11-1 0-2 0-3 0z"/>
<glyph unicode="&#70;" d="M256 236c-50 0-135 9-135 42 0 33 85 42 135 42 50 0 135-9 135-42 0-33-85-42-135-42z m-114 42c7-8 48-21 114-21 66 0 107 13 114 21-7 8-48 21-114 21-66 0-107-13-114-21z m114-278c-50 0-135 9-135 42l0 236c0 6 4 11 10 11 6 0 11-5 11-11l0-236c4-7 45-21 114-21 69 0 110 14 114 22l0 235c0 6 5 11 11 11 6 0 10-5 10-11l0-236c0-33-85-42-135-42z m46 327c-2 0-4 1-6 2-5 3-6 9-3 14 36 64-17 125-37 144-81-79-39-140-37-143 4-5 3-11-2-15-5-3-11-2-15 3 0 0-59 82 47 177 4 4 10 4 14 1 1-1 101-85 48-177-2-4-6-6-9-6z m-46-60c-6 0-11 5-11 11l0 94c0 6 5 11 11 11 6 0 11-5 11-11l0-94c0-6-5-11-11-11z m66-150c-142 0-195 103-196 104-3 5 0 12 5 14 5 3 11 1 14-4 3-5 62-119 234-87 5 1 11-3 12-9 1-6-3-11-8-12-22-4-43-6-61-6z m15 79c-68 0-107 35-109 37-4 4-4 11 0 15 4 4 11 4 15 0 2-1 50-45 135-26 6 1 12-3 13-9 1-5-2-11-8-12-17-4-32-5-46-5z m-9-176c-158 0-204 99-206 103-3 6 0 12 5 14 5 3 12 0 14-5 2-4 50-104 220-89 6 1 11-4 11-10 1-6-3-11-9-11-12-1-24-2-35-2z"/>
<glyph unicode="&#71;" d="M332 54l-152 0c-5 0-10 5-10 10l0 283c0 6 5 11 10 11l152 0c5 0 10-5 10-11l0-283c0-5-5-10-10-10z m-141 21l130 0 0 261-130 0z m228-73l-326 0c-3 0-6 1-8 4l-47 51c-3 3-4 8-2 12 2 4 6 6 10 6l420 0c4 0 8-2 10-6 2-4 1-9-2-12l-47-51c-2-3-5-4-8-4z m-322 21l318 0 27 31-372 0z m159 330c-2 0-3 1-5 1-2 1-48 25-53 67-3 29 15 58 51 87 4 3 9 3 13 0 2-2 58-39 55-86-2-26-20-49-56-68-2 0-3-1-5-1z m0 133c-26-22-38-43-36-62 2-25 26-42 36-48 25 14 39 30 40 47 1 27-27 53-40 63z"/>
<glyph unicode="&#72;" d="M85 76c-4 0-7 2-9 5-16 25-39 39-65 40-4 0-8 3-10 6-1 4-1 8 2 11 19 26 23 48 23 80 0 4 2 8 6 10 3 2 8 1 11-1 3-3 7-4 12-4 21 0 46 26 46 38 1 4 4 8 8 9 4 2 9 0 11-3 12-15 29-21 52-24 5-1 9-6 9-12-1-12 2-25 5-26 4-1 7-4 8-8 2-4 0-8-3-10-5-5-12-33-7-53 1-4-1-9-4-11-4-3-8-3-12-1-5 3-12 5-20 5-24 0-52-17-52-41-1-4-4-8-8-9-1-1-2-1-3-1z m-55 64c19-4 36-15 50-30 15 28 52 43 81 37 0 15 3 32 8 44-7 9-9 23-10 32-15 3-30 8-43 18-11-20-37-39-61-39-3 0-6 0-8 1-1-24-6-43-17-63z m297 165c-3 0-6 1-8 3-5 5-16 13-22 13-1 0-1 0-1-1-4-2-8-2-12-1-3 2-6 6-6 10 0 6-17 30-35 39-4 2-6 6-6 11 1 4 3 7 7 9 14 5 26 21 30 40 3 16-1 30-10 38-3 4-4 9-3 13 3 4 7 7 12 6 28-4 55 5 72 24 3 2 7 4 11 3 4-1 7-4 8-8 7-32 21-49 46-70 3-2 4-7 3-10-1-4-4-7-8-8-10-3-15-13-17-21-5-18-1-38 4-45 3-2 5-5 5-9 0-5-5-10-11-10 0 0 0 0-1 0l-1 0c-18 0-33-10-50-24-2-2-5-2-7-2z m-30 37c11 0 23-7 30-13 12 10 26 18 42 21-6 15-6 34-2 51 4 12 9 21 17 27-17 16-29 32-36 54-16-12-35-18-56-19 5-12 6-25 3-39-4-19-14-36-27-47 12-10 23-23 28-35 0 0 1 0 1 0z m175-342c-2 0-3 0-5 1-16 8-30 11-45 11-11 0-22-1-38-5-4-1-8 1-10 4-3 3-3 8-2 11 4 7 2 15-3 24-10 15-32 28-42 26-4 0-8 2-11 6-2 4-1 8 1 12 12 14 14 33 14 55-1 6 3 11 9 11 12 2 24 8 24 11 0 4 3 8 6 10 4 2 8 1 11-1 2-1 7-3 19-3 13 0 26 2 35 6 3 2 8 1 11-1 3-3 4-8 3-12-4-13 0-29 10-44 11-14 26-22 40-19 5 0 9-2 11-6 3-4 2-9-2-13-20-19-29-45-26-70 1-1 1-2 1-3 0-6-6-11-11-11 0 0 0 0 0 0z m-50 33c13 0 25-2 38-6 1 20 7 39 19 56-14 4-27 13-37 27-10 13-16 29-16 44-8-2-17-3-26-3-6 0-12 1-19 2-7-9-20-14-29-16 0-16-2-31-9-46 17-5 34-19 44-34 5-9 8-17 8-26 10 2 19 2 27 2z m-143 113c-41 0-75 33-75 75 0 42 34 75 75 75 42 0 75-33 75-75 0-42-33-75-75-75z m0 129c-30 0-54-24-54-54 0-30 24-54 54-54 30 0 54 24 54 54 0 30-24 54-54 54z"/>
<glyph unicode="&#73;" d="M480 248l-172 0c-6 0-11 5-11 11 0 5 5 10 11 10l172 0c6 0 11 5 11 11l0 66c0 6-5 10-11 10l-448 0c-6 0-11-4-11-10l0-66c0-6 5-11 11-11l171 0c6 0 11-5 11-10 0-6-5-11-11-11l-171 0c-18 0-32 14-32 32l0 66c0 17 14 32 32 32l448 0c18 0 32-15 32-32l0-66c0-18-14-32-32-32z m-34-248l-380 0c-17 0-32 14-32 32l0 205c0 18 15 32 32 32l141 0c6 0 11-5 11-10 0-6-5-11-11-11l-141 0c-6 0-10-5-10-11l0-205c0-6 4-11 10-11l380 0c6 0 10 5 10 11l0 205c0 6-4 11-10 11l-141 0c-6 0-11 5-11 11 0 5 5 10 11 10l141 0c17 0 32-14 32-32l0-205c0-18-15-32-32-32z m-182 360c-3 0-5 0-8 2-4 2-7 6-7 11 0 1 0 2 0 3 0 2 0 3 0 5 11 44 27 77 53 105 11 11 37 28 61 26 11-1 21-7 27-17 16-25 12-64 2-91-9-25-39-26-64-28-11 0-21-1-28-3-2-1-4-2-6-3-12-6-22-10-30-10z m94 131c-14 0-32-11-40-20-22-23-37-51-46-88 4 2 10 5 12 6 4 2 7 3 9 4 10 3 22 4 34 5 24 1 41 3 45 14 9 22 12 54 0 71-2 5-6 7-11 8-1 0-2 0-3 0z m-110-131c-8 0-18 4-30 10-2 1-4 2-6 3-7 2-17 3-28 3-25 2-55 3-64 28-10 27-14 66 2 91 6 10 16 16 27 17 24 2 50-15 61-26 26-28 42-61 53-105 0-2 0-3 0-5 0-1 0-2 0-3 0-5-3-9-7-11-3-2-5-2-8-2z m-94 131c-1 0-2 0-3 0-5-1-9-3-11-8-12-17-9-49 0-71 4-11 21-13 45-14 12-1 24-2 34-5 2-1 5-2 9-4 2-1 8-4 12-6-9 37-24 65-46 88-8 9-26 20-40 20z m53-486c-5 0-10 5-10 11l0 351c0 6 5 11 10 11 6 0 11-5 11-11l0-351c0-6-5-11-11-11z m98 0c-6 0-11 5-11 11l0 351c0 6 5 11 11 11 5 0 10-5 10-11l0-351c0-6-5-11-10-11z"/>
<glyph unicode="&#74;" d="M488 98l-435 0-52 140c-2 6 0 12 6 14 5 2 12-1 14-6l47-126 420 0c5 0 10-5 10-11 0-6-5-11-10-11z m-274 1c-2 0-4 1-6 2-2 2-56 38-40 121 1 6 7 10 13 8 5-1 9-6 8-12-13-68 29-98 31-99 5-4 6-10 3-15-2-3-6-5-9-5z m201 0c-4 0-7 2-9 5-3 5-2 12 3 15 2 1 44 31 31 99-2 6 2 11 8 12 6 2 11-2 13-8 15-83-38-119-40-121-2-1-4-2-6-2z m73 110l-354 0c-4 0-8 3-10 7-37 109-29 120-26 124 4 6 12 7 19 2 5-3 9-6 14-11 18-15 42-37 89-37 5 0 11 1 17 1 58 6 100 30 152 60 30 18 65 38 108 58 3 1 7 1 10-1 4-2 5-6 5-10l-14-183c0-5-5-10-10-10z m-346 22l336 0 11 155c-34-17-63-34-89-49-53-30-98-57-161-63-7-1-13-1-19-1-54 0-83 25-102 41 4-19 14-53 24-83z"/>
<glyph unicode="&#75;" d="M278 120c-40 0-72 32-72 72 0 40 32 73 72 73 40 0 72-33 72-73 0-40-32-72-72-72z m0 123c-28 0-51-23-51-51 0-28 23-51 51-51 28 0 51 23 51 51 0 28-23 51-51 51z m-10-200c-34 0-62 28-62 62 0 18 8 36 21 47 5 4 11 4 15-1 4-4 4-11-1-15-9-8-14-19-14-31 0-22 18-41 41-41 23 0 41 19 41 41 0 9-3 17-8 24-3 5-2 11 3 15 5 3 11 2 15-3 7-10 11-23 11-36 0-34-28-62-62-62z m-79 42c-34 0-62 28-62 62 0 34 28 62 62 62 10 0 20-2 29-7 6-3 8-9 5-15-3-5-9-7-15-4-6 3-12 5-19 5-23 0-41-18-41-41 0-23 18-41 41-41 7 0 13 2 19 5 6 3 12 1 15-4 3-6 1-12-4-15-10-5-20-7-30-7z m221 49c-1 0-2 0-3 0l-74 19c-5 1-9 7-7 13 1 5 7 9 13 7l57-14c0 26 21 45 43 60-3 6-5 14-3 22 3 15 16 30 30 39-2 4-3 8-4 11-1 8 0 16 3 23-8-2-16-2-23 1-3 1-7 3-10 7-12-13-29-23-45-23-8 0-15 3-20 7-19-19-41-36-67-31l1-22c0-6-4-11-10-11-6 0-11 4-11 10l-3 38c0 4 2 8 5 10 4 2 8 2 11 0 20-11 39-2 67 30 2 3 6 5 9 4 4-1 7-3 8-6 3-7 7-8 11-8 0 0 0 0 0 0 11 0 30 14 36 27 1 4 6 6 11 6 4-1 8-4 9-9 1-7 4-9 6-9 7-3 24 2 45 18 4 3 11 2 15-2 3-5 3-11-2-15-19-17-27-34-25-41 0-1 1-5 8-8 4-1 7-6 6-10 0-5-3-9-8-10-13-3-30-19-32-30-1-4-1-8 5-12 3-2 5-5 5-9 0-4-2-7-6-9-37-21-49-38-41-59 1-4 0-8-3-11-2-2-4-3-7-3z m-192 60c-5 0-9 3-11 8-7 28-46 28-46 28-5 0-9 3-11 7-1 4 0 9 4 12 17 14 16 35-4 72-2 4-2 8 0 11 2 3 6 5 9 5 7 0 10 4 11 7 4 11-1 33-11 43-4 3-4 8-2 12 2 5 7 7 11 6 8-2 10 1 11 2 5 6 8 23 0 48-1 6 2 12 7 13 6 2 12-1 14-6 9-25 21-37 28-39 2 0 5-1 10 5 4 3 9 4 13 2 4-2 6-7 6-11-2-14 6-35 16-42 3-2 7-3 13 1 3 2 6 3 10 1 3-1 6-5 6-8 6-42 17-60 40-61 6 0 10-5 10-11 0-6-5-11-11-10-38 1-52 33-58 66-7-2-14 0-21 4-14 9-23 26-26 43-4-1-8-1-12 0-7 2-14 6-20 12-1-8-4-16-9-21-3-3-6-6-10-7 7-16 11-35 5-50-3-8-8-13-15-17 11-23 18-49 6-70 18-4 40-15 47-42 1-5-2-11-8-13-1 0-1 0-2 0z m-111-63c-2 0-4 0-6 2-3 2-5 6-5 10 2 10-2 22-37 32-3 2-6 4-7 8-1 4 0 7 3 10 2 3 2 4 1 6-3 7-16 15-25 15-5 0-9 3-10 7-1 5 0 10 4 12 4 2 4 4 3 4 0 4-6 14-23 23-5 3-6 9-4 14 3 6 9 8 14 5 18-8 29-8 32-5 1 0 2 1 2 4 0 5 3 9 7 11 4 1 9 0 12-4 5-7 19-14 27-12 1 0 3 1 4 5 0 3 3 6 6 8 4 1 8 0 11-2 28-22 40-19 48-11 3 2 7 3 10 2 4-1 7-5 7-9l3-17c1-6-3-12-9-12-6-1-11 3-12 8l0 3c-19-6-38 3-50 12-4-4-8-7-14-8-11-2-24 2-35 8-1-1-3-3-5-4-4-3-8-4-13-5 2-4 4-8 4-13 0-2 0-5-1-7 12-5 22-13 27-24 2-5 3-10 2-15 14-6 32-16 38-34l17 9c6 2 12 0 15-5 2-5 0-12-5-15l-31-15c-2-1-3-1-5-1z"/>
<glyph unicode="&#76;" d="M318 54l-152 0c-6 0-10 5-10 10l0 283c0 6 4 11 10 11l151 0c6 0 11-5 11-11l0-283c0-5-5-10-10-10z m-141 21l130 0 0 261-130 0z m228-73l-326 0c-3 0-6 1-8 4l-47 51c-3 3-4 8-2 12 2 4 6 6 10 6l420 0c4 0 8-2 10-6 1-4 1-9-2-12l-47-51c-2-3-5-4-8-4z m-322 21l318 0 27 31-372 0z m159 330c-2 0-3 1-5 1-2 1-48 25-53 67-3 29 15 58 51 87 4 3 9 3 13 0 2-2 57-39 55-86-2-26-21-49-56-68-2 0-3-1-5-1z m0 133c-26-22-38-43-37-62 3-25 27-42 37-48 25 14 38 30 39 47 2 25-23 51-39 63z m69-340c-2 0-3 0-5 0-103 45-147 117-149 120-3 5-1 12 4 15 5 3 12 1 15-4 0 0 42-69 139-111 5-2 8-9 6-14-2-4-6-6-10-6z m0-67c-2 0-3 1-5 1-103 45-147 117-149 120-3 5-1 12 4 15 5 3 12 1 15-4 0-1 42-69 139-111 5-2 8-9 6-14-2-4-6-7-10-7z m125-11c-31 0-55 25-55 55 0 30 24 55 55 55 30 0 55-25 55-55 0-30-25-55-55-55z m0 89c-19 0-34-15-34-34 0-19 15-34 34-34 18 0 34 15 34 34 0 19-16 34-34 34z"/>
<glyph unicode="&#77;" d="M332 54l-152 0c-5 0-10 5-10 10l0 283c0 6 5 11 10 11l152 0c5 0 10-5 10-11l0-283c0-5-5-10-10-10z m-141 21l130 0 0 261-130 0z m228-73l-326 0c-3 0-6 1-8 4l-47 51c-3 3-4 8-2 12 2 4 6 6 10 6l420 0c4 0 8-2 10-6 2-4 1-9-2-12l-47-51c-2-3-5-4-8-4z m-322 21l318 0 27 31-372 0z m159 330c-2 0-3 1-5 1-2 1-48 25-53 67-3 29 15 58 51 87 4 3 9 3 13 0 2-1 58-39 55-86-2-26-20-49-56-68-2 0-3-1-5-1z m0 133c-26-22-38-43-36-63 2-23 26-41 36-47 25 14 39 30 40 47 1 25-24 51-40 63z m1-394c-5 0-10 5-10 11l0 202c0 6 5 11 10 11 6 0 11-5 11-11l0-202c0-6-5-11-11-11z"/>
<glyph unicode="&#78;" d="M256 2c0 0 0 0 0 0-4 0-7 2-9 5-1 1-15 22-62 28-6 0-10 5-10 11 0 0 1 42-22 66-13 13-31 20-55 18-6 0-11 4-11 10 0 0-7 73-55 73-5 0-10-1-16-2-3-1-6 0-9 2-2 1-4 4-4 7-1 7-13 167 85 212 4 2 9 1 12-3 1-1 75-91 156-91 81 0 155 90 156 91 3 4 8 5 12 3 98-45 86-205 85-212 0-3-2-6-4-7-3-2-6-3-9-2-6 1-11 2-16 2-48 0-55-73-55-73 0-6-5-10-11-10-24 2-42-5-55-18-24-25-22-66-22-66 0-6-4-11-10-11-48-6-61-27-62-28-2-3-5-5-9-5z m-59 53c31-6 49-17 59-26 10 9 28 20 60 26 1 16 6 49 28 72 15 16 36 24 61 25 6 33 26 83 75 83 3 0 5-1 8-1 1 35-2 139-65 175-20-22-89-92-167-92-78 0-147 70-167 92-63-36-66-140-65-175 3 0 5 1 8 1 49 0 69-50 75-83 25-1 46-9 61-25 22-23 27-56 29-72z m138 287c-6 0-11 4-11 10 0 50-30 90-68 90-37 0-68-40-68-90 0-6-5-10-11-10-6 0-10 4-10 10 0 61 40 111 89 111 49 0 89-50 89-111 0-6-4-10-10-10z m-114 91c-3 0-7 2-9 5l-32 56c-3 5-1 12 4 15 5 2 12 1 15-4l31-56c3-5 2-12-4-15-1-1-3-1-5-1z m70 0c-2 0-4 0-5 1-6 3-7 10-4 15l31 56c3 5 10 6 15 3 5-2 7-9 4-14l-32-56c-2-3-6-5-9-5z"/>
<glyph unicode="&#79;" d="M495 178l-441 0-53 142c-2 5 0 12 6 14 5 2 12-1 14-7l48-128 426 0c6 0 11-5 11-11 0-6-5-10-11-10z m-278 1c-2 0-4 0-6 1-2 2-56 39-40 123 1 6 7 10 12 8 6-1 10-6 9-12-14-69 29-100 31-101 5-3 6-10 3-15-2-3-5-4-9-4z m204 0c-3 0-7 1-9 4-3 5-2 12 3 15 2 1 45 32 31 101-1 6 3 11 9 12 6 2 11-2 12-8 16-84-38-121-40-123-2-1-4-1-6-1z m80 117l-364 0c-6 0-11 5-11 11 0 6 5 11 11 11l364 0c6 0 11-5 11-11 0-6-5-11-11-11z"/>
<glyph unicode="&#80;" d="M383 124l-289 0c-52 0-94 42-94 94l0 4c0 52 42 95 94 95 6 0 11-5 11-11 0-6-5-11-11-11-40 0-73-32-73-73l0-4c0-40 33-73 73-73l289 0c40 0 73 33 73 73l0 4c0 6 4 11 10 11 6 0 11-5 11-11l0-4c0-52-42-94-94-94z m-282 54c-20 0-38 10-49 26-10 16-11 35-3 52 2 5 8 8 14 5 5-2 8-9 5-14-5-11-4-22 2-31 7-11 18-17 31-17 27 0 48 22 48 48 0 27-21 48-48 48-6 0-11 5-11 11 0 6 5 11 11 11 38 0 69-32 69-70 0-38-31-69-69-69z m103-54c-1 0-2 0-3 0-6 2-9 9-7 14l25 68c2 6 9 8 14 6 6-2 8-8 6-13l-25-68c-1-5-5-7-10-7z m184 0c-4 0-8 2-10 7l-25 68c-2 5 1 11 7 13 5 2 11 0 13-6l25-68c2-5 0-12-6-14-1 0-2 0-4 0z m2 74l-192 0c-3 0-6 1-8 4-2 2-3 5-2 8 8 39 4 69-13 91-26 35-74 38-75 38-4 0-8 3-9 8-2 4 0 9 3 11 28 20 57 30 87 30 63 0 112-42 131-61 33 32 71 47 113 47 46 0 80-19 82-20 4-3 6-7 5-12-1-4-5-8-10-8-64-3-101-128-102-129-1-4-5-7-10-7z m-179 21l171 0c8 25 37 101 87 127-12 4-27 7-44 7-40 0-75-16-106-48-2-2-4-4-8-4-3 1-5 2-7 4-1 1-55 62-123 62-17 0-35-4-51-12 19-6 44-17 62-41 18-24 25-56 19-95z"/>
<glyph unicode="&#81;" d="M236 412c0-7-6-12-13-12-6 0-12 5-12 12 0 7 6 12 12 12 7 0 13-5 13-12z m65 0c0-7-6-12-12-12-7 0-13 5-13 12 0 7 6 12 13 12 6 0 12-5 12-12z m-33-165c0-6-5-12-12-12-7 0-12 6-12 12 0 7 5 13 12 13 7 0 12-6 12-13z m0-70c0-7-5-13-12-13-7 0-12 6-12 13 0 6 5 12 12 12 7 0 12-6 12-12z m0-71c0-7-5-12-12-12-7 0-12 5-12 12 0 6 5 12 12 12 7 0 12-6 12-12z m-12-106c-91 0-165 77-165 172 0 69 38 130 98 157-22 18-35 44-35 72 0 27 11 52 32 70 4 4 11 4 15-1 4-4 3-11-1-15-16-14-25-33-25-54 0-27 16-52 41-65 4-2 6-6 6-11 0-4-3-8-7-9-61-19-103-78-103-144 0-83 65-151 144-151 79 0 144 68 144 151 0 66-42 125-103 144-4 1-7 5-7 9 0 5 2 9 6 11 25 13 41 38 41 65 0 21-10 42-27 56-4 4-5 11-1 15 4 5 11 5 15 1 22-18 34-44 34-72 0-28-13-54-34-72 59-27 97-88 97-157 0-95-74-172-165-172z m118 456l-228 0c-6 0-11 5-11 11 0 6 5 11 11 11l228 0c6 0 11-5 11-11 0-6-5-11-11-11z m-76 35l-76 0c-6 0-11 4-11 10 0 6 5 11 11 11l76 0c6 0 11-5 11-11 0-6-5-10-11-10z m-265-227c-2 0-4 1-6 2-5 4-6 10-2 15 24 33 87 84 156 39 5-3 6-10 3-15-3-5-10-6-15-3-69 45-125-30-127-33-2-3-5-5-9-5z m446 0c-4 0-7 2-9 5-2 3-58 78-127 33-5-3-12-2-15 3-3 5-2 12 3 15 69 45 132-6 156-39 4-5 3-11-2-15-2-1-4-2-6-2z"/>
<glyph unicode="&#82;" d="M421 223l-330 0c-51 0-92 41-92 91 0 51 41 92 92 92 11 0 22-2 32-6 12 34 45 58 82 58 10 0 19-1 28-4 17 32 51 53 89 53 56 0 101-46 101-101 0 0 0 0 0 0 50-1 90-42 90-92 0-50-41-91-92-91z m-330 161c-39 0-70-31-70-70 0-38 31-70 70-70l330 0c39 0 70 32 70 70 0 39-31 70-70 70-2 0-5 0-8 0-3-1-7 0-9 3-2 2-4 5-3 9 0 3 1 6 1 10 0 44-36 79-80 79-33 0-62-19-74-49-1-3-3-5-6-6-3-1-6-1-8 0-9 5-19 7-29 7-32 0-59-23-65-54 0-4-3-7-6-8-3-1-6-1-9 0-11 6-23 9-34 9z m53-230l-22-14 6 25-20 17 26 2 10 24 10-24 25-2-19-17 5-25z m222 2l-16-10 4 18-14 13 19 2 7 18 8-18 19-2-14-13 4-18z m-188-133l-29-18 8 33-25 22 33 3 13 30 13-30 33-3-25-22 7-33z m179 18l-16-10 4 19-15 12 20 2 7 18 8-18 19-2-15-12 5-19z m-99 64l-27-17 7 32-25 21 33 3 12 30 13-30 33-3-25-21 7-32z"/>
<glyph unicode="&#83;" d="M459 0l-406 0c-29 0-53 24-53 53l0 406c0 29 24 53 53 53l406 0c29 0 53-24 53-53l0-406c0-29-24-53-53-53z m-406 491c-18 0-32-14-32-32l0-406c0-18 14-32 32-32l406 0c18 0 32 14 32 32l0 406c0 18-14 32-32 32z m203-228c-48 0-86 39-86 86 0 48 38 87 86 87 48 0 86-39 86-87 0-47-38-86-86-86z m0 151c-36 0-65-29-65-65 0-35 29-65 65-65 36 0 65 30 65 65 0 36-29 65-65 65z m-151-158c-33 0-59 28-59 63l0 61c0 34 26 62 59 62 1 0 2 0 4-1l87-36c6-2 8-9 6-14-2-5-8-8-14-6l-85 36c-20-1-36-19-36-41l0-61c0-22 16-40 36-41l85 35c6 3 12 0 14-5 2-6 0-12-6-14l-87-37c-2 0-3-1-4-1z m302 0c-1 0-2 1-4 1l-87 37c-6 2-8 8-6 14 2 5 8 8 14 5l85-35c20 1 36 19 36 41l0 61c0 22-16 40-36 41l-85-36c-6-2-12 1-14 6-2 6 0 12 6 14l87 36c2 1 3 1 4 1 33 0 59-28 59-62l0-61c0-35-26-63-59-63z m-357 83l-32 0c-6 0-11 4-11 10 0 6 5 11 11 11l32 0c5 0 10-5 10-11 0-6-5-10-10-10z m451 0l-31 0c-6 0-11 4-11 10 0 6 5 11 11 11l31 0c6 0 11-5 11-11 0-6-5-10-11-10z m-245 82c-6 0-11 5-11 11l0 69c0 6 5 11 11 11 6 0 11-5 11-11l0-69c0-6-5-11-11-11z m0-421c-6 0-11 5-11 11l0 263c0 6 5 10 11 10 6 0 11-4 11-10l0-263c0-6-5-11-11-11z m-126 100c-3 0-7 2-9 5-3 5-1 12 4 15 95 56 95 150 95 154 0 6 5 10 11 10 0 0 0 0 0 0 6 0 10-4 10-10 0-5 0-110-105-173-2-1-4-1-6-1z m264-15c-2 0-3 0-4 1-5 2-8 8-7 13 29 89-105 169-106 170-5 3-7 10-4 15 3 5 9 7 14 4 7-4 151-90 117-195-2-5-6-8-10-8z"/>
<glyph unicode="&#84;" d="M235 429c0-7-6-13-13-13-6 0-12 6-12 13 0 7 6 12 12 12 7 0 13-5 13-12z m67 0c0-7-6-13-12-13-7 0-13 6-13 13 0 7 6 12 13 12 6 0 12-5 12-12z m-34-210c0-7-5-13-12-13-7 0-12 6-12 13 0 7 5 12 12 12 7 0 12-5 12-12z m0-73c0-7-5-12-12-12-7 0-12 5-12 12 0 7 5 12 12 12 7 0 12-5 12-12z m0-73c0-7-5-12-12-12-7 0-12 5-12 12 0 7 5 13 12 13 7 0 12-6 12-13z m-12 248c-53 0-96 43-96 95 0 53 43 96 96 96 53 0 96-43 96-96 0-52-43-95-96-95z m0 170c-41 0-74-34-74-75 0-41 33-74 74-74 41 0 74 33 74 74 0 41-33 75-74 75z m-13-491c0 0 0 0 0 0-66 0-116 9-147 17l-7 2-1 8c0 5 0 9 0 13 0 147 75 267 168 267 93 0 168-120 168-267 0-4 0-7 0-11l-1-8-8-2c-59-13-117-19-172-19z m-133 36c29-7 75-15 133-15 0 0 0 0 0 0 51 0 105 6 159 17 0 1 0 2 0 2 0 135-65 245-146 245-81 0-146-110-146-245 0-1 0-3 0-4z m10 151c-2 0-3 1-5 1-1 1-152 73-101 260 2 4 5 7 10 7 4 1 8-1 10-5 1-2 91-163 190-144 6 1 12-3 13-9 1-6-3-11-9-12-90-17-168 85-199 132-27-151 94-209 95-209 5-3 8-9 5-15-1-4-5-6-9-6z m272 0c-4 0-8 2-9 6-3 6-1 12 5 15 5 2 122 59 95 209-31-47-109-149-199-132-6 1-10 6-9 12 1 6 7 10 13 9 99-19 189 142 190 144 2 4 6 6 10 5 5 0 8-3 10-7 51-187-100-259-101-260-2 0-3-1-5-1z m-127 180l-19 0c-6 0-11 4-11 10 0 6 5 11 11 11l19 0c6 0 11-5 11-11 0-6-5-10-11-10z"/>
<glyph unicode="&#85;" d="M84 100c-3 0-6 1-8 3-49 45-76 106-76 170 0 132 115 239 256 239 141 0 256-107 256-239 0-62-26-121-72-166-4-4-11-4-15 0-4 4-4 11 0 15 42 41 66 95 66 151 0 120-106 218-235 218-129 0-235-98-235-218 0-58 25-113 70-155 4-4 4-10 0-15-2-2-4-3-7-3z m355-100l-366 0 0 121 366 0z m-345 21l324 0 0 79-324 0z m192 79l-60 0c-5 0-10 5-10 11l0 84c0 6 5 11 10 11l60 0c5 0 10-5 10-11l0-84c0-6-5-11-10-11z m-49 21l38 0 0 64-38 0z m28 291c0 6-5 11-11 11-6 0-11-5-11-11 0-6 5-10 11-10 6 0 11 4 11 10z m0-81c0 6-5 11-11 11-6 0-11-5-11-11 0-5 5-10 11-10 6 0 11 5 11 10z m0-82c0 6-5 11-11 11-6 0-11-5-11-11 0-5 5-10 11-10 6 0 11 5 11 10z m-91 163c0 6-5 11-11 11-7 0-12-5-12-11 0-6 5-10 12-10 6 0 11 4 11 10z m0-81c0 6-5 11-11 11-7 0-12-5-12-11 0-5 5-10 12-10 6 0 11 5 11 10z m0-82c0 6-5 11-11 11-7 0-12-5-12-11 0-5 5-10 12-10 6 0 11 5 11 10z m-92 82c0 6-5 11-11 11-6 0-11-5-11-11 0-5 5-10 11-10 6 0 11 5 11 10z m0-82c0 6-5 11-11 11-6 0-11-5-11-11 0-5 5-10 11-10 6 0 11 5 11 10z m50-74c0 6-6 11-12 11-6 0-11-5-11-11 0-6 5-11 11-11 6 0 12 5 12 11z m228 237c0 6-5 11-12 11-6 0-11-5-11-11 0-6 5-10 11-10 7 0 12 4 12 10z m0-81c0 6-5 11-12 11-6 0-11-5-11-11 0-5 5-10 11-10 7 0 12 5 12 10z m0-82c0 6-5 11-12 11-6 0-11-5-11-11 0-5 5-10 11-10 7 0 12 5 12 10z m91 82c0 6-5 11-11 11-7 0-12-5-12-11 0-5 5-10 12-10 6 0 11 5 11 10z m0-82c0 6-5 11-11 11-7 0-12-5-12-11 0-5 5-10 12-10 6 0 11 5 11 10z m-54-78c0 6-5 11-12 11-6 0-11-5-11-11 0-6 5-11 11-11 7 0 12 5 12 11z"/>
<glyph unicode="&#86;" d="M256 0c-111 0-201 90-201 201 0 111 90 201 201 201 111 0 201-90 201-201 0-111-90-201-201-201z m0 381c-99 0-180-81-180-180 0-99 81-180 180-180 99 0 180 81 180 180 0 99-81 180-180 180z m54-8c-6 0-11 5-11 11l0 39-86 0 0-39c0-6-5-11-11-11-6 0-10 5-10 11l0 50c0 6 4 10 10 10l108 0c6 0 10-4 10-10l0-50c0-6-4-11-10-11z m-54 50c-25 0-44 20-44 45 0 24 19 44 44 44 25 0 44-20 44-44 0-25-19-45-44-45z m0 68c-13 0-23-11-23-23 0-13 10-24 23-24 13 0 23 11 23 24 0 12-10 23-23 23z m77-434c-2 0-5 1-7 2l-70 58-71-58c-3-3-8-3-12-1-3 2-6 7-5 11l15 90-85 32c-4 2-7 6-7 10 0 5 3 9 7 10l85 32-15 90c-1 5 2 9 5 11 4 3 9 2 12-1l71-58 70 58c4 3 9 4 13 1 3-2 6-6 5-11l-15-90 85-32c4-1 7-5 7-10 0-4-3-8-7-10l-85-32 15-90c1-4-2-9-5-11-2-1-4-1-6-1z m-77 85c2 0 5-1 7-3l55-45-12 70c-1 5 2 10 7 12l67 25-67 25c-5 2-8 7-7 12l12 71-55-46c-4-3-10-3-14 0l-55 46 12-71c1-5-2-10-7-12l-67-25 67-25c5-2 8-7 7-12l-12-70 55 45c2 2 5 3 7 3z"/>
<glyph unicode="&#87;" d="M202 267c0-9-7-16-15-16-9 0-16 7-16 16 0 8 7 15 16 15 8 0 15-7 15-15z m139 0c0-9-7-16-15-16-9 0-16 7-16 16 0 8 7 15 16 15 8 0 15-7 15-15z m-85-267c-94 0-163 226-163 285 0 61 73 111 163 111 90 0 163-50 163-111 0-59-69-285-163-285z m0 374c-78 0-142-39-142-89 0-59 69-264 142-264 73 0 142 205 142 264 0 50-64 89-142 89z m-215-185c-5 0-10 1-14 2-10 4-18 12-23 23-7 17-5 41 5 63 14 31 39 51 64 51 4 0 9 0 13-2 10-4 18-12 23-23 7-17 5-41-5-63-14-31-39-51-63-51z m32 118c-14 0-33-13-45-39-7-16-9-34-4-46 2-6 6-9 10-11 14-5 37 8 51 38 7 17 9 34 4 46-2 6-6 9-10 11-2 1-4 1-6 1z m398-118c-23 0-50 21-63 51-10 22-12 46-5 63 5 11 13 19 23 23 4 2 9 2 13 2 25 0 50-20 64-51 10-22 12-46 5-63-5-11-13-19-23-23-4-1-9-2-14-2z m-32 118c-2 0-4 0-6-1-4-2-8-5-10-11-5-12-3-29 4-46 14-30 37-43 51-38 4 2 8 5 10 11 5 12 3 30-4 46-12 26-31 39-45 39z m-206 67c-5 0-10 4-11 9-4 22-23 25-27 26-72-2-122 12-148 41-23 25-20 52-20 53 1 6 6 10 12 9 6-1 10-6 9-12 0-1-1-19 15-36 15-17 51-36 132-34l0 0 1 0c14-1 41-11 47-43 1-6-3-11-8-12-1 0-2-1-2-1z m-98 37c-1 0-3 1-4 1-45 21-36 88-36 91 1 6 7 10 13 9 5-1 9-6 9-12 0-1-8-54 23-68 5-3 7-9 5-14-2-4-6-7-10-7z m58 0c-2 0-3 1-5 1-45 21-35 88-35 91 1 6 6 10 12 9 6-1 10-6 9-12 0-1-7-54 23-68 5-3 8-9 5-14-1-4-5-7-9-7z m86-37c0 0-1 1-2 1-5 1-9 6-8 12 6 32 33 42 47 43l1 0 0 0c81-2 117 17 132 34 16 18 15 35 15 36-1 6 3 11 9 12 6 1 11-4 12-9 0-1 3-28-20-53-26-29-76-43-148-41-3-1-23-4-27-26-1-5-6-9-11-9z m98 37c-4 0-8 3-10 7-2 5 0 11 5 14 30 13 23 67 23 68 0 6 4 11 9 12 6 1 12-3 13-9 0-3 9-70-36-91-1 0-3-1-4-1z m-58 0c-4 0-8 3-9 7-3 5 0 11 5 14 30 13 23 67 23 68-1 6 3 11 9 12 6 1 11-3 12-9 0-3 10-70-35-91-2 0-3-1-5-1z m-40-353l-46 0c-6 0-11 4-11 10 0 6 5 11 11 11l46 0c6 0 11-5 11-11 0-6-5-10-11-10z"/>
<glyph unicode="&#88;" d="M462 223l-284 0c-28 0-50 22-50 50l0 12c0 27 22 50 50 50l284 0c27 0 50-23 50-50l0-12c0-28-23-50-50-50z m-284 91c-16 0-29-13-29-29l0-12c0-16 13-29 29-29l284 0c16 0 29 13 29 29l0 12c0 16-13 29-29 29z m236-314l-188 0c-5 0-10 4-11 8l-47 223c0 4 0 7 2 9 2 3 6 4 9 4l282 0c3 0 6-1 8-4 2-2 3-5 2-8l-47-224c-1-4-5-8-10-8z m-180 21l171 0 43 202-256 0z m167 294c-3 0-5 1-7 3l-63 62c-1 1-1 1-1 1-12 11-35 30-65 38-47 12-88 55-90 57l-10 10-12-11 11-10c2-2 45-42 58-90 3-14 10-28 20-42 3-5 2-12-3-15-5-3-11-2-15 3-11 16-19 32-23 49-11 41-51 79-52 79l-18 19c-2 2-3 4-3 7 0 3 1 6 3 8l26 26c4 4 11 4 15 0l18-18c1-1 39-41 81-52 33-8 59-29 72-41 1 0 1-1 2-1l64-64c4-4 4-11 0-15-2-2-5-3-8-3z m-238 134c-3 0-6 1-8 3-4 5-4 11 0 15l18 18c4 4 11 4 15 0 4-4 4-11 0-15l-18-18c-2-2-5-3-7-3z m-96-370l-6 0c-33 0-61 26-61 58l8 97c1 5 6 9 11 9l90 0c6 0 10-4 11-9l8-96c0-33-27-59-61-59z m-38 143l-8-86c0-19 18-35 40-35l6 0c22 0 40 16 40 36l-8 85-70 0z m35-221c-6 0-11 5-11 11l0 73c0 5 5 10 11 10 6 0 11-5 11-10l0-73c0-6-5-11-11-11z m27 0l-53 0c-6 0-11 5-11 11 0 6 5 10 11 10l53 0c6 0 10-4 10-10 0-6-4-11-10-11z m18 169l-90 0c-6 0-11 5-11 11 0 6 5 11 11 11l90 0c6 0 10-5 10-11 0-6-4-11-10-11z"/>
<glyph unicode="&#89;" d="M256 0c-111 0-201 90-201 201 0 111 90 201 201 201 111 0 201-90 201-201 0-111-90-201-201-201z m0 381c-99 0-180-81-180-180 0-99 81-180 180-180 99 0 180 81 180 180 0 99-81 180-180 180z m0-333c-84 0-153 69-153 153 0 85 69 153 153 153 84 0 153-68 153-153 0-84-69-153-153-153z m0 285c-73 0-132-59-132-132 0-72 59-132 132-132 73 0 132 60 132 132 0 73-59 132-132 132z m0-231c-55 0-99 45-99 99 0 55 44 100 99 100 55 0 99-45 99-100 0-54-44-99-99-99z m0 177c-43 0-78-35-78-78 0-43 35-78 78-78 43 0 78 35 78 78 0 43-35 78-78 78z m0-124c-26 0-46 21-46 46 0 26 20 47 46 47 26 0 46-21 46-47 0-25-20-46-46-46z m0 71c-14 0-25-11-25-25 0-14 11-25 25-25 14 0 25 11 25 25 0 14-11 25-25 25z m54 147c-6 0-11 5-11 11l0 39-86 0 0-39c0-6-5-11-11-11-6 0-10 5-10 11l0 50c0 6 4 10 10 10l108 0c6 0 10-4 10-10l0-50c0-6-4-11-10-11z m-54 50c-25 0-44 20-44 45 0 24 19 44 44 44 25 0 44-20 44-44 0-25-19-45-44-45z m0 68c-13 0-23-11-23-23 0-13 10-24 23-24 13 0 23 11 23 24 0 12-10 23-23 23z"/>
<glyph unicode="&#90;" d="M126 215c-12 0-24 3-36 7l-16 6c-52 20-77 78-58 130l1 1 81 152 164-63-43-169c-14-38-52-64-93-64z m-90 134c-15-40 5-85 45-101l17-6c9-4 18-5 28-5 32 0 62 20 73 49l38 149-129 49z m18-207c-1 0-3 0-4 1-5 2-8 8-6 14l29 75c2 5 8 8 14 6 5-2 8-8 6-14l-29-75c-2-4-6-7-10-7z m43-17c-1 0-2 1-3 1l-87 34c-6 2-8 8-6 13 2 6 8 9 14 6l86-33c6-2 9-8 6-14-1-4-5-7-10-7z m77 230c0 0-1 0-1 0-10 1-15 10-19 18 0 1-1 2-1 3-4-5-9-6-12-6-9 1-13 8-16 12 0 1-1 1-1 2-2 2-5 4-8 6 0-1-1-3-2-3-3-5-8-12-17-13-5-1-10 1-15 5-4 4-6 8-7 11-1 2-2 4-2 4-1 1-3 1-6 0-3-1-6-3-7-5-2-5-9-7-14-5-5 3-7 9-5 15 4 7 12 13 21 15 8 3 16 2 22-2 6-4 9-9 10-13 1-1 1-1 1-2 1 1 1 1 2 2 3 5 8 11 15 12 14 3 28-14 28-14 1 0 1 0 1 0 2 1 4 2 8 3 9 2 18-7 22-13 1-1 2-3 2-5 1-1 1-1 2-2 1 1 1 2 2 3 4 5 8 12 16 17 5 3 11 4 15 6 2 0 4 1 5 1l2 1c7 2 17 6 28 0 5-2 7-9 5-14-3-5-9-7-15-5-2 1-5 1-11-1l-2-1c-2-1-4-1-6-2-4-1-7-2-10-3-4-3-6-7-9-11-2-2-3-4-5-6-5-7-10-10-16-10z m212-262c-41 0-79 26-94 64l0 2-42 167 164 63 82-153c19-52-6-110-58-129l-16-7c-12-4-24-7-36-7z m-73 72c11-30 41-50 73-50 10 0 19 2 28 5l17 6c40 16 60 61 45 101l-72 136-129-50z m145-145c-4 0-8 3-10 7l-29 75c-2 6 1 12 6 14 6 2 12-1 14-6l29-75c2-6-1-12-6-14-1-1-3-1-4-1z m-43-17c-5 0-9 3-10 7-3 6 0 12 6 14l86 34c6 2 12-1 14-7 2-5 0-11-6-13l-87-34c-1 0-2-1-3-1z m-66 190c-6 0-11 4-16 10-2 2-3 4-5 6-3 5-6 9-10 11-2 2-6 3-10 4-2 1-4 1-6 2l-2 1c-6 2-9 2-12 1-5-2-11 0-14 5-3 5 0 12 5 14 11 6 21 2 28 0l2-1c1 0 3-1 5-1 5-2 10-3 15-7 8-4 13-11 17-17 1-1 1-2 2-3 1 1 1 2 2 3 1 2 2 3 3 5 3 6 12 14 22 13 3-1 6-2 8-4 0 0 0 1 1 1 0 0 14 17 28 14 8-1 12-7 16-12 0-1 1-2 2-3 0 1 0 2 1 3 1 3 4 9 10 13 7 4 15 5 23 3 9-3 17-9 20-16 3-6 1-12-4-15-5-3-12-1-14 5-2 2-5 4-8 5-2 1-4 1-6 0 0 0-1-2-2-4-1-3-3-8-7-11-5-4-10-6-15-5-9 1-14 7-17 12-1 1-2 3-3 4-2-2-6-5-8-7 0 0-1-1-1-1-3-4-7-11-16-12-4 0-9 1-12 6-1-2-2-3-2-4-4-7-9-17-19-18 0 0-1 0-1 0z m-33 36c0 0-1 0-2 1-6 1-9 6-8 12l44 230 79 0c6 0 11-4 11-10 0-6-5-11-11-11l-62 0-40-213c-1-5-6-9-11-9z"/>
<glyph unicode="&#48;" d="M485 0l-458 0c-6 0-10 5-10 11l0 183c0 5 3 9 7 11l98 29 0 104c0 5 3 9 8 10l122 37c2 0 4 0 6 0l124-37c5-1 8-5 8-10l0-105 98-28c4-2 7-6 7-11l0-183c0-6-4-11-10-11z m-447 21l436 0 0 165-98 29c-4 1-7 6-7 10l0 105-114 33-112-33 0-104c0-5-3-9-7-10l-98-30z m218 343c-6 0-11 5-11 10l0 127c0 6 5 11 11 11 6 0 11-5 11-11l0-127c0-5-5-10-11-10z m45 89l-90 0c-6 0-11 5-11 11 0 5 5 10 11 10l90 0c6 0 11-5 11-10 0-6-5-11-11-11z m17-453l-124 0c-6 0-11 5-11 11l0 92c0 34 33 63 73 63 40 0 73-29 73-63l0-92c0-6-5-11-11-11z m-113 21l102 0 0 82c0 23-23 42-51 42-28 0-51-19-51-42z m51 192c-30 0-55 25-55 55 0 30 25 54 55 54 30 0 55-24 55-54 0-30-25-55-55-55z m0 88c-18 0-33-15-33-33 0-19 15-34 33-34 18 0 33 15 33 34 0 18-15 33-33 33z"/>
<glyph unicode="&#49;" d="M256 26c-3 0-5 1-8 3-23 23-45 45-67 66-101 98-181 175-181 242 0 83 67 149 149 149 41 0 79-16 107-45 28 29 66 45 107 45 82 0 149-66 149-149 0-67-74-139-178-239-22-22-46-45-70-69-3-2-5-3-8-3z m-107 439c-70 0-128-57-128-128 0-58 81-136 175-227 19-19 39-38 60-59 22 22 43 43 64 63 95 92 171 166 171 223 0 71-58 128-128 128-38 0-74-17-99-46-4-5-12-5-16 0-25 29-61 46-99 46z"/>
<glyph unicode="&#50;" d="M350 16c-10 0-22 1-33 3-6 1-10 6-9 12 1 6 6 10 12 9 39-7 66-1 76 15 19 30-29 106-127 166-98 60-187 68-206 37-9-15-2-41 20-71 24-33 62-67 108-95 12-7 24-14 37-20 5-3 7-9 5-15-3-5-9-7-15-5-13 7-26 14-39 22-48 29-88 65-114 100-27 38-34 72-20 95 29 47 132 33 235-30 104-64 163-149 134-196-11-18-33-27-64-27z m66 69l-21 9-2 4c-17 39-65 86-124 123-59 36-122 57-165 54l-5 0-15 15 15 6c1 1 92 37 150 120l1 1c16 25 45 40 80 40 24 0 49-8 71-21 56-34 78-99 51-144-47-90-38-188-38-189z m-273 209c41-7 91-27 137-55 47-29 87-64 112-98 2 40 10 102 41 161l2 3c19 36-1 85-45 113-19 11-40 17-60 17-27 0-50-11-62-30l-1-2c-39-55-90-90-124-109z m290 88c-4 0-8 2-10 6-3 5-1 11 5 14 7 4 13 10 18 17 13 22 6 51-16 65-10 6-23 8-35 5-13-3-23-10-29-21-5-7-7-15-7-24 0-6-5-10-11-10 0 0 0 0 0 0-6 0-11 5-11 11 1 12 4 24 10 34 10 16 25 27 43 31 17 4 36 1 51-8 32-20 43-62 23-94-6-10-16-19-26-25-2-1-4-1-5-1z m-155-382c-36 0-64 29-64 64 0 36 28 64 64 64 35 0 64-28 64-64 0-35-29-64-64-64z m0 107c-24 0-43-19-43-43 0-23 19-43 43-43 24 0 43 20 43 43 0 24-19 43-43 43z m18 0c-1 0-2 0-3 1-6 1-9 7-8 13l23 82c1 5 7 9 13 7 6-2 9-7 7-13l-22-82c-1-5-6-8-10-8z"/>
<glyph unicode="&#51;" d="M256 0c-111 0-201 90-201 201 0 111 90 201 201 201 111 0 201-90 201-201 0-111-90-201-201-201z m0 381c-99 0-180-81-180-180 0-99 81-180 180-180 99 0 180 81 180 180 0 99-81 180-180 180z m-8-284c-50 0-86 36-99 74-16 43-7 98 46 126 43 22 81 1 99-23 23-30 24-66 3-89-25-26-57-29-77-24-16 4-28 13-31 26-6 22 1 43 16 54 14 10 32 10 48-1 5-3 6-10 3-15-4-5-10-6-15-3-9 6-17 7-23 2-9-6-12-19-8-32 1-4 6-8 15-11 15-3 38-1 56 19 15 16 10 43-4 61-14 19-41 33-72 17-42-22-48-66-36-100 13-36 49-68 99-57 51 11 84 34 99 67 28 64-16 151-30 176-3 5-2 12 4 15 5 3 11 1 14-4 20-36 63-125 31-196-17-40-56-66-114-79-8-2-16-3-24-3z m62 276c-6 0-11 5-11 11l0 39-86 0 0-39c0-6-5-11-11-11-6 0-10 5-10 11l0 50c0 6 4 10 10 10l108 0c6 0 10-4 10-10l0-50c0-6-4-11-10-11z m-54 50c-25 0-44 20-44 45 0 24 19 44 44 44 25 0 44-20 44-44 0-25-19-45-44-45z m0 68c-13 0-23-11-23-23 0-13 10-24 23-24 13 0 23 11 23 24 0 12-10 23-23 23z"/>
<glyph unicode="&#52;" d="M256 0c-111 0-201 90-201 201 0 111 90 201 201 201 111 0 201-90 201-201 0-111-90-201-201-201z m0 381c-99 0-180-81-180-180 0-99 81-180 180-180 99 0 180 81 180 180 0 99-81 180-180 180z m54-167c-38 0-69 31-69 69 0 38 31 69 69 69 38 0 69-31 69-69 0-38-31-69-69-69z m0 117c-26 0-47-22-47-48 0-26 21-47 47-47 26 0 48 21 48 47 0 26-22 48-48 48z m-136-183c-38 0-69 31-69 69 0 38 31 68 69 68 38 0 68-30 68-68 0-38-30-69-68-69z m0 116c-27 0-48-21-48-47 0-26 21-48 48-48 26 0 47 22 47 48 0 26-21 47-47 47z m123-209c-38 0-69 31-69 69 0 38 31 69 69 69 37 0 68-31 68-69 0-38-31-69-68-69z m0 117c-27 0-48-22-48-48 0-26 21-47 48-47 26 0 47 21 47 47 0 26-21 48-47 48z m13 201c-6 0-11 5-11 11l0 39-86 0 0-39c0-6-5-11-11-11-6 0-10 5-10 11l0 50c0 6 4 10 10 10l108 0c6 0 10-4 10-10l0-50c0-6-4-11-10-11z m-54 50c-25 0-44 20-44 45 0 24 19 44 44 44 25 0 44-20 44-44 0-25-19-45-44-45z m0 68c-13 0-23-11-23-23 0-13 10-24 23-24 13 0 23 11 23 24 0 12-10 23-23 23z"/>
<glyph unicode="&#53;" d="M280 0c-9 0-18 2-25 7-101 64-184 147-248 248-13 19-7 50 11 69l36 36c9 9 20 14 31 14 13 0 24-6 31-17 62-98 143-179 241-241 10-7 16-16 17-27 1-12-4-24-14-35l-36-36c-11-11-28-18-44-18z m-195 353c-5 0-10-3-15-8l-37-36c-11-12-15-31-8-42 62-98 144-180 242-242 3-2 8-4 13-4 10 0 22 5 29 12l36 37c6 5 8 11 8 17-1 4-3 8-7 11-101 64-184 147-248 248-3 4-8 7-13 7z m19-8c-5 0-10 3-11 9-1 5 3 11 9 12 68 12 116 41 176 79 8 5 16 10 24 15 23 14 47 18 69 12 39-9 60-45 60-47 3-5 2-11-4-14-5-3-11-2-14 4 0 0-18 29-47 37-17 4-35 1-53-11-8-5-16-10-24-14-60-37-112-69-183-82-1 0-2 0-2 0z m251-252c0 0-1 0-2 0-5 1-9 7-8 13 13 72 45 123 82 183 4 8 9 16 14 24 12 18 15 36 11 53-8 30-37 47-37 47-6 3-7 9-4 14 3 6 9 7 14 4 2 0 38-21 47-60 6-22 2-45-13-69-4-8-9-16-14-24-38-60-67-108-79-176-1-5-6-9-11-9z m100 306c-31 0-56 25-56 56 0 32 25 57 56 57 32 0 57-25 57-57 0-31-25-56-57-56z m0 92c-19 0-35-16-35-36 0-19 16-35 35-35 20 0 36 16 36 35 0 20-16 36-36 36z m-330-454c-24 0-46 9-62 26-35 34-35 90 0 124 4 4 11 4 15 0 4-4 4-11 0-15-26-26-26-68 0-94 12-13 29-20 47-20 18 0 34 7 47 20 4 4 11 4 15 0 4-4 4-11 0-15-17-17-39-26-62-26z"/>
<glyph unicode="&#54;" d="M501 0l-490 0c-6 0-11 5-11 11l0 112c0 6 5 11 11 11l490 0c6 0 11-5 11-11l0-112c0-6-5-11-11-11z m-480 21l470 0 0 92-470 0z m449 92l-428 0c-6 0-11 4-11 10l0 378c0 6 5 11 11 11l428 0c6 0 11-5 11-11l0-378c0-6-5-10-11-10z m-418 21l408 0 0 357-408 0z m354-21l-300 0c-6 0-11 4-11 10l0 262c0 6 5 11 11 11l300 0c6 0 11-5 11-11l0-262c0-6-5-10-11-10z m-290 21l280 0 0 241-280 0z m105-16c-2 0-4 0-6 1-1 1-34 24-36 66-2 37 21 77 69 117 5 4 12 3 15-2 4-4 4-11-1-15-42-35-63-69-62-99 2-31 27-49 27-49 5-3 6-10 3-15-2-3-6-4-9-4z m70 0c-3 0-7 1-9 4-3 5-2 12 3 15 0 0 26 18 27 49 1 31-20 64-62 99-5 4-5 11-1 15 3 5 10 6 15 2 48-40 71-80 69-117-2-42-35-65-36-66-2-1-4-1-6-1z"/>
<glyph unicode="&#55;" d="M215 129c-23 0-43 8-57 22-38 38-23 115 33 172 34 34 77 54 115 54 23 0 43-7 57-21 38-39 24-116-33-172-34-35-77-55-115-55z m91 227c-32 0-70-18-100-48-48-49-63-112-33-142 10-10 25-16 42-16 32 0 70 18 100 49 48 48 63 111 33 142-10 10-24 15-42 15z m-162-354c0 0 0 0 0 0-4 0-8 3-10 7l-24 58-37-9c-3-1-6 0-9 2-2 2-4 5-4 8l1 47-52 21c-4 1-7 5-7 10 0 4 3 8 7 10l129 46c5 2 11-1 13-7 2-5-1-11-6-13l-102-37 32-13c4-2 7-6 7-10l0-40 32 7c5 2 11-1 13-6l18-44 52 106c2 5 9 7 14 5 5-3 7-9 5-14l-62-128c-2-4-6-6-10-6z m228 293c-4 0-8 2-10 6-2 5 0 12 5 14l106 52-44 18c-5 2-8 8-6 13l7 32-40 0c-4 0-8 3-10 7l-13 32-37-102c-2-5-8-8-13-6-6 2-9 8-7 13l46 129c2 4 6 7 10 7 0 0 0 0 0 0 5 0 9-3 10-7l21-52 47 1c3 0 6-2 8-4 2-3 3-6 2-9l-9-37 58-24c4-2 7-6 7-10 0-4-2-8-6-10l-127-62c-2-1-4-1-5-1z"/>
<glyph unicode="&#56;" d="M189 26c-2 0-5 1-7 2l-173 144c-5 3-6 9-3 13l38 61c1 3 4 4 7 5 3 0 6 0 9-2l173-144c5-3 6-9 3-14l-38-60c-1-3-4-5-7-5-1 0-1 0-2 0z m-160 156l158-130 26 43-158 129z m31 54c-3 0-6 2-8 5-4 4-3 11 2 14l161 114c5 4 12 2 15-2 3-5 2-12-3-15l-160-114c-2-1-4-2-7-2z m169-139c0 0-1 0-2 0-5 1-9 7-8 12l29 148c1 6 7 10 13 8 5-1 9-6 8-12l-29-148c-1-5-6-8-11-8z m98-71c0 0-1 0-1 0-3 0-6 2-8 5l-37 60c-3 5-2 11 2 14l174 144c2 2 5 2 9 2 3-1 5-2 7-5l37-61c3-4 2-10-2-13l-174-144c-2-1-4-2-7-2z m-23 69l26-43 157 130-26 42z m152 141c-2 0-4 1-6 2l-161 114c-5 3-6 10-2 15 3 4 10 6 15 2l160-114c5-3 6-10 3-14-2-3-5-5-9-5z m-169-139c-5 0-9 3-10 8l-42 213-8 37c-1 6 2 11 8 13 6 1 11-3 13-8l8-38 42-213c1-5-3-11-9-12-1 0-1 0-2 0z m-31 249c-28 0-51 25-51 57 0 31 23 56 51 56 28 0 51-25 51-56 0-32-23-57-51-57z m0 92c-17 0-30-16-30-35 0-20 13-36 30-36 17 0 30 16 30 36 0 19-13 35-30 35z m-220-119c-25 0-36 44-36 84 0 40 11 83 36 83 1 0 148-4 194-50 3-3 4-9 2-13-4-6-6-13-6-20 0-8 2-15 6-21 2-4 2-9-1-13-46-48-193-50-195-50z m0 146c-4-2-15-23-15-62 0-39 11-60 15-62 27 0 134 7 174 38-4 7-5 15-5 24 0 8 1 16 4 23-41 32-153 39-173 39z m440-146c-2 0-149 2-195 50-3 4-3 9-1 13 4 6 6 13 6 21 0 7-2 14-6 20-2 4-1 10 2 13 46 46 193 50 194 50 25 0 36-43 36-83 0-40-11-84-36-84z m-174 60c40-31 147-38 174-38 4 2 15 23 15 62 0 39-11 60-15 62-20 0-132-7-173-39 3-7 4-15 4-23 0-9-1-17-5-24z"/>
<glyph unicode="&#57;" d="M256 5c-104 0-189 84-189 188 0 104 85 189 189 189 50 0 98-20 133-56 36-35 56-82 56-133 0-104-85-188-189-188z m0 355c-92 0-167-75-167-167 0-92 75-167 167-167 92 0 167 75 167 167 0 92-75 167-167 167z m100-29c-6 0-11 4-11 10l0 76-178 0 0-76c0-6-5-10-10-10-6 0-11 4-11 10l0 86c0 6 5 11 11 11l199 0c5 0 10-5 10-11l0-86c0-6-5-10-10-10z m-31 91c-6 0-11 5-11 11 0 29-26 53-58 53-32 0-58-24-58-53 0-6-5-11-11-11-6 0-10 5-10 11 0 41 35 74 79 74 44 0 79-33 79-74 0-6-4-11-10-11z m74-129l16-15-244-243-15 15z m-58 59l15-15-243-244-16 15z"/>
<glyph unicode="&#33;" d="M256 1c-105 0-191 86-191 191 0 106 86 191 191 191 51 0 99-20 135-56 36-36 56-84 56-135 0-105-86-191-191-191z m0 361c-94 0-170-76-170-170 0-93 76-169 170-169 93 0 170 76 170 169 0 94-76 170-170 170z m101-30c-6 0-11 4-11 10l0 77-180 0 0-77c0-6-5-10-11-10-6 0-11 4-11 10l0 88c0 6 5 10 11 10l202 0c6 0 10-4 10-10l0-88c0-6-4-10-10-10z m-31 92c-6 0-11 5-11 11 0 30-27 54-59 54-33 0-59-24-59-54 0-6-5-11-11-11-6 0-10 5-10 11 0 42 36 76 80 76 44 0 80-34 80-76 0-6-5-11-10-11z m-234-276c-1 0-3 1-4 1-4 1-8 5-8 11l21 0c0 4-2 8-6 9-5 2-9 0-11-2 2 2 8 12 12 20 20 35 30 49 41 49 13 0 22-13 38-37 6-9 15-23 20-27 5 4 16 18 22 27 17 24 27 37 40 37 12 0 21-13 37-37 6-9 15-23 20-27 5 4 15 18 21 27 16 24 26 37 39 37 11 0 20-13 38-43 5-9 12-21 15-23-1 0-3 1-5 1l0-21c-10 0-15 9-29 32-5 9-15 25-20 31-5-4-15-18-20-26-17-24-27-37-39-37-12 0-22 13-38 37-5 9-15 23-20 27-5-4-15-18-22-27-16-24-27-37-39-37-13 0-22 13-38 37-5 8-14 21-19 26-6-7-18-27-23-37-12-20-16-28-23-28z m4-29l320 0 0-21-320 0z"/>
<glyph unicode="&#34;" d="M207 0c-56 0-113 6-168 18-21 5-39 30-39 55l0 49c0 24 15 41 36 41 2 0 5-1 8-1 107-24 219-24 326 0 3 0 5 1 8 1 21 0 36-17 36-41l0-49c0-25-18-50-39-55-56-12-112-18-168-18z m-171 141c-9 0-15-7-15-19l0-49c0-15 11-31 23-34 107-24 219-24 326 0 12 3 22 19 22 34l0 49c0 13-7 21-17 19-111-24-225-24-336 0-1 0-2 0-3 0z m327 8c-17 33-26 55-39 84-2 7-6 14-9 21-11 21-22 45-23 71 0 24 9 36 17 41 9 6 25 10 51-2 10-4 17-9 27-17l-13-17c-9 7-15 11-23 15-13 6-24 7-30 3-6-4-7-15-7-23 0-21 10-41 20-62 4-7 7-14 10-21 12-30 22-51 38-83z m-311 0l-21 5c22 95 72 265 97 306 24 38 68 57 118 51 52-6 167-117 183-138l-17-13c-17 22-126 125-168 130-42 5-78-11-97-41-24-38-73-205-95-300z m386 81c-41 0-75 34-75 76 0 42 34 77 75 77 41 0 74-35 74-77 0-42-33-76-74-76z m0 131c-30 0-53-24-53-55 0-30 23-55 53-55 29 0 53 25 53 55 0 31-24 55-53 55z"/>
<glyph unicode="&#35;" d="M445 0l-378 0c-37 0-67 32-67 72l0 316c0 39 30 72 67 72l378 0c37 0 67-33 67-72l0-316c0-40-30-72-67-72z m-378 438c-25 0-46-22-46-50l0-316c0-28 21-51 46-51l378 0c25 0 46 23 46 51l0 316c0 28-21 50-46 50z m362-357l-346 0c-6 0-11 5-11 11l0 261c0 5 5 10 11 10l346 0c6 0 11-5 11-10l0-261c0-6-5-11-11-11z m-336 21l325 0 0 240-325 0z m37 303c-6 0-11 4-11 10l0 86c0 6 5 11 11 11 6 0 10-5 10-11l0-86c0-6-4-10-10-10z m252 0c-6 0-10 4-10 10l0 86c0 6 4 11 10 11 6 0 11-5 11-11l0-86c0-6-5-10-11-10z m-227-255l0 12 15 15c37 35 53 53 54 75 0 15-7 28-29 28-13 0-24-6-30-12l-7 14c10 8 24 15 41 15 31 0 44-22 44-42 0-27-19-48-49-78l-12-10 0-1 65 0 0-16z m199 128l-55 0-5-37c3 0 6 1 12 1 11 0 22-3 31-8 11-7 20-19 20-37 0-28-22-49-53-49-16 0-29 4-36 8l5 15c6-3 17-8 30-8 19 0 35 12 35 32-1 18-13 32-42 32-8 0-14-1-20-2l9 69 69 0 0-16z"/>
<glyph unicode="&#36;" d="M171 135l-73 0 0 34c-25 11-42 36-42 62 0 33 30 129 77 129 47 0 78-96 78-129 0-25-16-49-40-61z m-51 21l30 0 0 28 6 3c21 8 34 25 34 44 0 32-30 108-57 108-27 0-56-76-56-108 0-20 14-38 36-45l7-2z m145-156c-17 0-32 7-44 19-19 22-14 71 4 99 16 24 35 44 36 44l3 3 226 0c6 0 10-4 10-10 0-6-4-11-10-11l-217 0c-6-6-19-21-30-38-15-22-17-60-6-72 9-10 22-15 36-12 16 3 29 14 34 29 2 6 8 9 14 7 5-2 8-8 6-14-8-22-27-38-50-43-4-1-8-1-12-1z m-42 92l-179 0c-6 0-11 4-11 10 0 6 5 11 11 11l179 0c5 0 10-5 10-11 0-6-5-10-10-10z m-90 290c-6 0-10 4-10 10l0 58c0 6 4 10 10 10 6 0 11-4 11-10l0-58c0-6-5-10-11-10z m68-27c-3 0-6 1-8 3-4 5-3 11 1 15l43 38c5 4 12 4 15-1 4-4 4-11 0-15l-44-38c-2-1-4-2-7-2z m-136 0c-2 0-5 1-7 2l-43 38c-4 4-5 11-1 15 4 5 11 5 15 1l43-38c5-4 5-10 1-15-2-2-5-3-8-3z m351-169l-72 0 0 34c-26 12-43 36-43 63 0 33 31 128 78 128 47 0 77-95 77-128 0-26-15-49-40-61l0-36z m-51 22l30 0 0 28 7 2c20 8 33 26 33 45 0 32-29 107-56 107-27 0-57-75-57-107 0-20 14-38 36-45l7-3 0-27z m14 225c-6 0-11 5-11 11l0 57c0 6 5 11 11 11 6 0 10-5 10-11l0-57c0-6-4-11-10-11z m68-27c-3 0-6 1-8 4-4 4-4 11 1 15l43 38c4 4 11 3 15-1 4-5 3-11-1-15l-43-38c-2-2-5-3-7-3z m-136 0c-3 0-5 1-7 3l-43 38c-5 4-5 11-1 15 3 4 10 5 15 1l43-38c4-4 5-11 1-15-2-3-5-4-8-4z"/>
<glyph unicode="&#37;" d="M256 0c-95 0-173 81-173 182 0 100 78 181 173 181 95 0 173-81 173-181 0-101-78-182-173-182z m0 342c-83 0-151-72-151-160 0-89 68-161 151-161 83 0 151 72 151 161 0 88-68 160-151 160z m-41-105c0 9-7 17-16 17-8 0-15-8-15-17 0-9 7-16 15-16 9 0 16 7 16 16z m113 0c0 9-7 17-15 17-9 0-16-8-16-17 0-9 7-16 16-16 8 0 15 7 15 16z m-72-186c-52 0-93 28-93 64 0 35 42 90 93 90 51 0 93-55 93-90 0-36-41-64-93-64z m0 133c-39 0-72-46-72-69 0-24 33-43 72-43 39 0 72 19 72 43 0 23-33 69-72 69z m18-45l-36 0c-6 0-11 4-11 10 0 6 5 11 11 11l36 0c6 0 11-5 11-11 0-6-5-10-11-10z m-179 80c0 0-1 0-1 0-1 0-103 14-93 134l0 9 9 1c1 0 97 14 133-68 2-5-1-12-6-14-5-2-12 0-14 6-23 53-80 56-102 56-2-93 72-103 75-103 6-1 11-6 10-12-1-5-5-9-11-9z m322 0c-6 0-10 4-11 9 0 6 4 11 10 12 3 0 77 11 75 103-22 1-79-2-102-56-2-6-9-8-14-6-5 2-8 9-6 14 36 82 132 68 133 68l9-1 0-9c10-120-92-134-93-134 0 0-1 0-1 0z m-97 110c-5 0-9 4-10 9-1 6 3 11 8 12 2 1 105 20 143 79 14 21 17 44 11 70-1 5 2 11 8 13 6 1 11-2 13-8 8-32 3-61-14-87-43-66-152-87-157-88 0 0-1 0-2 0z m104 40c-3 0-6 1-8 4-4 4-3 11 1 15 31 27 4 72 3 74-3 5-2 12 4 15 5 3 11 1 14-4 13-21 29-70-7-101-2-2-4-3-7-3z m-58-27c-4 0-7 2-9 5-4 5-2 11 3 14 32 20 18 64 17 65-2 6 1 12 7 14 5 2 11-1 13-7 8-21 12-67-26-90-2-1-3-1-5-1z m-174-13c-1 0-2 0-2 0-5 1-114 22-157 88-17 26-22 55-14 87 2 6 8 9 13 8 6-2 9-8 8-13-6-26-3-49 11-70 38-59 142-78 143-79 5-1 9-6 8-12-1-5-5-9-10-9z m-104 40c-3 0-5 1-7 3-36 31-20 80-7 101 3 5 9 7 15 4 5-3 6-10 3-15-1-2-28-47 3-74 4-4 5-11 1-15-2-3-5-4-8-4z m58-27c-1 0-3 0-5 1-38 23-34 69-26 90 2 6 8 9 13 7 6-2 9-8 7-14-1-1-15-45 17-65 5-3 7-9 4-14-2-3-6-5-10-5z"/>
<glyph unicode="&#38;" d="M216 278c0-13-11-23-23-23-13 0-24 10-24 23 0 13 11 23 24 23 12 0 23-10 23-23z m128 0c0-13-11-23-23-23-13 0-24 10-24 23 0 13 11 23 24 23 13 0 23-10 23-23z m46-245c-24 0-47 10-67 30-20-20-42-30-66-30-24 0-48 11-68 31-20-20-43-31-67-31-67 0-122 81-122 182 0 100 55 181 122 181 24 0 47-11 67-31 20 20 44 31 68 31 24 0 46-10 66-30 20 20 43 30 67 30 67 0 122-81 122-181 0-101-55-182-122-182z m-67 56c3 0 6-1 8-3 13-15 33-32 59-32 56 0 101 72 101 161 0 88-45 160-101 160-26 0-46-17-59-32-2-2-4-3-8-3 0 0 0 0 0 0-3 0-6 1-8 3-12 15-32 32-58 32-27 0-47-18-60-32-2-3-5-4-8-4-3 0-6 1-8 4-12 14-33 32-59 32-56 0-101-72-101-160 0-89 45-161 101-161 26 0 47 18 59 32 2 3 5 4 8 4 3 0 6-1 8-4 13-14 33-32 60-32 26 0 46 17 58 32 2 2 5 3 8 3z m-67 298c-4 0-8 3-10 7-7 19-7 60 40 84 5 2 11 0 14-5 3-5 0-12-5-14-40-21-30-54-29-58 2-5-1-11-6-13-2-1-3-1-4-1z m-69-261l-60 41c-5 3-6 10-3 15 3 5 10 6 15 3l49-34 69 42 64-42 54 28c5 3 12 1 15-5 2-5 0-11-5-14l-65-34-64 42z"/>
<glyph unicode="&#39;" d="M216 278c0-13-11-23-23-23-13 0-24 10-24 23 0 13 11 23 24 23 12 0 23-10 23-23z m128 0c0-13-10-23-23-23-13 0-23 10-23 23 0 13 10 23 23 23 13 0 23-10 23-23z m46-245c-24 0-47 10-67 30-20-20-42-30-66-30-24 0-48 11-68 31-20-20-43-31-67-31-67 0-122 81-122 182 0 100 55 181 122 181 24 0 47-11 67-31 20 20 44 31 68 31 24 0 46-10 66-30 20 20 43 30 67 30 67 0 122-81 122-181 0-101-55-182-122-182z m-67 56c4 0 6-1 8-3 13-15 33-32 59-32 56 0 101 72 101 161 0 88-45 160-101 160-26 0-46-17-59-32-2-2-5-3-8-3-3 0-6 1-8 3-12 15-32 32-58 32-27 0-47-18-60-32-2-3-5-4-8-4-3 0-6 1-8 4-12 14-33 32-59 32-56 0-101-72-101-160 0-89 45-161 101-161 26 0 47 18 59 32 2 3 5 4 8 4 3 0 6-1 8-4 13-14 33-32 60-32 26 0 46 17 58 32 2 2 5 3 8 3z m-67 298c-4 0-8 3-10 7-7 19-7 60 40 84 5 2 11 0 14-5 3-5 0-12-5-14-40-21-30-54-29-58 2-5-1-11-6-13-2-1-3-1-4-1z m35-260c-18 0-38 7-50 19-14 14-24 24-40 27-9 2-20 0-25-5-3-3-4-7-4-12 1-6-4-11-10-11-5-1-11 3-11 9-1 12 3 22 11 30 12 11 31 12 44 10 23-5 37-20 50-33 11-10 31-16 45-12 10 3 17 19 20 42 0 6 6 10 12 10 5-1 10-6 9-12-2-19-10-53-35-60-5-2-11-2-16-2z"/>
<glyph unicode="&#40;" d="M256 263c-3 0-5 1-8 3-41 42-77 167-77 193 0 29 23 53 52 53 12 0 24-4 33-11 9 7 21 11 33 11 29 0 52-24 52-53 0-27-35-151-77-193-3-2-5-3-8-3z m-33 228c-17 0-31-14-31-32 0-21 31-126 64-169 35 45 64 150 64 169 0 18-14 32-31 32-10 0-19-5-25-12-2-2-5-4-8-4-3 0-6 2-8 4-6 7-15 12-25 12z m66-491c-12 0-24 4-33 11-9-7-21-11-33-11-29 0-52 24-52 53 0 26 36 151 77 193 5 4 11 4 16 0 42-42 77-166 77-193 0-29-23-53-52-53z m-33 37c3 0 6-2 8-4 6-7 15-12 25-12 17 0 31 14 31 32 0 19-29 123-64 169-33-43-64-148-64-169 0-18 14-32 31-32 10 0 19 5 25 12 2 2 5 4 8 4z m203 134c-27 0-151 35-193 77-4 5-4 11 0 16 42 41 167 77 193 77 29 0 53-23 53-52 0-12-4-24-11-33 7-9 11-21 11-33 0-29-24-52-53-52z m-169 85c45-35 150-64 169-64 18 0 32 14 32 31 0 10-5 19-12 25-2 2-4 5-4 8 0 3 2 6 4 8 7 6 12 15 12 25 0 17-14 31-32 31-21 0-126-31-169-64z m-237-85c-29 0-53 23-53 52 0 12 4 24 11 33-7 9-11 21-11 33 0 29 24 52 53 52 26 0 151-36 193-77 4-5 4-11 0-16-42-42-166-77-193-77z m0 149c-18 0-32-14-32-31 0-10 5-19 12-25 2-2 4-5 4-8 0-3-2-6-4-8-7-6-12-15-12-25 0-17 14-31 32-31 19 0 124 29 169 64-43 33-148 64-169 64z m321 19c-2 0-5 1-7 3-4 4-4 11 0 15l102 102c4 4 11 4 15 0 4-4 4-11 0-15l-102-102c-2-2-5-3-8-3z m-338-339c-3 0-6 1-8 3-4 4-4 11 0 15l88 88c4 4 11 4 15 0 4-4 4-11 0-15l-88-88c-2-2-5-3-7-3z m440 0c-2 0-5 1-7 3l-97 97c-4 4-4 11 0 15 4 4 11 4 15 0l97-97c4-4 4-11 0-15-2-2-5-3-8-3z m-346 347c-3 0-6 1-8 3l-94 94c-4 4-4 11 0 15 4 4 11 4 15 0l94-94c4-4 4-11 0-15-2-2-5-3-7-3z"/>
<glyph unicode="&#41;" d="M503 0l-494 0 35 470 424 0z m-471 21l448 0-32 428-384 0z m223 143c-74 0-134 96-134 215 0 6 5 11 11 11 6 0 10-5 10-11 0-107 51-194 113-194 61 0 112 87 112 194 0 6 5 11 10 11 6 0 11-5 11-11 0-119-60-215-133-215z m-201 285c-4 0-8 2-10 7-2 5 1 11 6 13 26 10 28 17 28 18 0 2-3 5-3 6-4 3-5 7-4 12 2 4 6 7 10 7l342 0c5 0 9-3 10-8 1-5-1-10-5-12-2-1-5-4-5-5 0 0 3-8 38-17 5-2 9-8 7-14-1-5-7-9-13-7-35 9-52 21-53 36-1 2-1 4 0 6l-303 0c0-2 0-4 0-6-2-15-15-26-41-36-2 0-3 0-4 0z"/>
<glyph unicode="&#42;" d="M256 312c-25 0-45 20-45 45 0 25 20 45 45 45 25 0 45-20 45-45 0-25-20-45-45-45z m0 68c-13 0-23-10-23-23 0-13 10-23 23-23 13 0 23 10 23 23 0 13-10 23-23 23z m0 8c-6 0-11 5-11 11l0 72c0 6 5 11 11 11 6 0 11-5 11-11l0-72c0-6-5-11-11-11z m0 35c-3 0-5 1-7 3l-33 30c-5 4-5 11-1 15 4 4 11 5 15 1l33-30c5-4 5-11 1-15-2-3-5-4-8-4z m0 0c-3 0-6 1-8 4-4 4-4 11 1 15l33 30c4 4 11 3 15-1 4-4 4-11-1-15l-33-30c-2-2-4-3-7-3z m0-191c-6 0-11 5-11 11l0 72c0 6 5 10 11 10 6 0 11-4 11-10l0-72c0-6-5-11-11-11z m33 7c-2 0-5 1-7 3l-33 30c-5 4-5 11-1 15 4 5 11 5 15 1l33-30c5-4 5-11 1-15-2-2-5-4-8-4z m-66 0c-3 0-6 2-8 4-4 4-4 11 1 15l33 30c4 4 11 4 15-1 4-4 4-11-1-15l-33-30c-2-2-5-3-7-3z m147 107l-72 0c-6 0-10 5-10 11 0 6 4 11 10 11l72 0c6 0 11-5 11-11 0-6-5-11-11-11z m-37 0c-3 0-5 1-7 3-5 4-5 11-1 15l30 33c4 5 11 5 15 1 4-4 5-11 1-15l-30-33c-2-3-5-4-8-4z m30-33c-3 0-6 1-8 4l-30 33c-4 4-4 11 1 15 4 4 11 3 15-1l30-33c4-4 3-11-1-15-2-2-5-3-7-3z m-149 33l-72 0c-6 0-11 5-11 11 0 6 5 11 11 11l72 0c6 0 11-5 11-11 0-6-5-11-11-11z m-65-33c-2 0-5 1-7 3-4 4-5 11-1 15l30 33c4 4 11 5 15 1 5-4 5-11 1-15l-30-33c-2-3-5-4-8-4z m30 33c-3 0-6 1-8 4l-30 33c-4 4-3 11 1 15 4 4 11 4 15-1l30-33c4-4 4-11-1-15-2-2-4-3-7-3z m271-346l-388 0c-28 0-51 23-51 51l0 271c0 28 23 51 51 51l31 0 0-22-31 0c-17 0-30-13-30-29l0-271c0-16 13-30 30-30l388 0c17 0 30 14 30 30l0 271c0 16-13 29-30 29l-34 0 0 22 34 0c28 0 51-23 51-51l0-271c0-28-23-51-51-51z m-346 286l-22 0 0 177c0 27 25 49 55 49l238 0c30 0 55-22 55-49l0-167-22 0 0 167c0 15-15 28-33 28l-238 0c-18 0-33-13-33-28z m148-161c-2 0-5 1-7 3l-221 210 15 15 214-203 220 203 15-15-228-210c-2-2-5-3-8-3z"/>
<glyph unicode="&#43;" d="M252 300c-58 0-106 47-106 106 0 58 48 106 106 106 59 0 106-48 106-106 0-59-47-106-106-106z m0 191c-46 0-84-38-84-85 0-47 38-85 84-85 47 0 85 38 85 85 0 47-38 85-85 85z m-59-289c-6 0-10 5-10 11l0 114c0 6 4 10 10 10 6 0 11-4 11-10l0-114c0-6-5-11-11-11z m119-202l-119 0c-6 0-10 5-10 11l0 102c0 6 4 11 10 11 6 0 11-5 11-11l0-92 97 0 0 119c0 6 5 11 11 11 6 0 10-5 10-11l0-129c0-6-4-11-10-11z m0 229c-6 0-11 5-11 11l0 87c0 6 5 10 11 10 6 0 10-4 10-10l0-87c0-6-4-11-10-11z m-249-156c-2 0-4 0-6 1-3 2-4 4-5 7l-22 94c0 3 0 6 2 8 1 3 4 5 6 5l409 94c3 1 6 0 8-1 2-2 4-4 5-7l22-94c1-6-3-12-8-13l-409-94c-1 0-2 0-2 0z m-9 97l17-74 387 89-17 74z m22 5c-3 0-6 1-9 4-3 4-3 11 2 15l117 98c5 3 12 3 15-2 4-4 4-11-1-15l-118-97c-2-2-4-3-6-3z m365 84c-1 0-1 0-2 0l-129 25c-6 2-10 7-9 13 1 6 7 10 13 8l129-25c6-1 10-6 8-12-1-5-5-9-10-9z m-248-221c-4 0-8 2-10 6-2 6 0 12 6 14l118 54c6 3 12 0 14-5 3-5 0-12-5-14l-118-54c-2-1-3-1-5-1z m0 197c-4 0-8 2-10 6-2 6 0 12 6 14l118 54c6 3 12 0 14-5 3-5 0-12-5-14l-118-54c-2-1-3-1-5-1z"/>
<glyph unicode="&#44;" d="M261 0c-6 0-11 5-11 11l0 490c0 6 5 11 11 11 6 0 11-5 11-11l0-490c0-6-5-11-11-11z m0 311c-3 0-6 2-8 4l-156 155c-4 5-4 11 0 15 4 5 11 5 15 1l149-149 120 130c4 4 11 5 15 1 5-4 5-11 1-15l-128-138c-2-2-5-4-8-4 0 0 0 0 0 0z m1-210c-3 0-5 1-7 2l-251 185c-4 3-5 10-2 15 4 4 10 5 15 2l244-180 234 180c5 3 11 3 15-2 3-5 3-12-2-15l-240-185c-2-1-4-2-6-2z m-178 288c-4 0-8 3-10 8-1 6 2 12 8 13l68 20 0 71c0 6 5 11 11 11 6 0 11-5 11-11l0-79c0-5-3-9-8-11l-77-21c-1-1-2-1-3-1z m36-184c0 0 0 0-1 0l-110 13c-5 0-10 6-9 11 1 6 6 11 12 10l110-13c6-1 10-6 9-12-1-5-5-9-11-9z m82-69l-90 0c-6 0-10 5-10 11 0 5 4 10 10 10l90 0c5 0 10-5 10-10 0-6-5-11-10-11z m203 75c-6 0-11 5-11 10 0 6 4 11 10 12l97 6c6 0 11-4 11-10 0-6-4-11-10-11l-97-7c0 0 0 0 0 0z m-72 178c-2 0-4 1-6 3-3 2-4 5-4 8-3 85 0 91 1 93 2 5 9 8 14 5 5-2 7-8 5-13-1-6 0-39 1-72l69 12c6 1 12-3 13-9 1-6-3-11-9-12l-82-14c0-1-1-1-2-1z m-114-103c0 16-13 28-29 28-16 0-29-12-29-28 0-16 13-29 29-29 16 0 29 13 29 29z m105-3c0 8-7 15-15 15-9 0-16-7-16-15 0-9 7-15 16-15 8 0 15 6 15 15z m122 69c0 13-10 23-23 23-13 0-23-10-23-23 0-12 10-22 23-22 13 0 23 10 23 22z m-324 8c0 8-6 15-15 15-8 0-15-7-15-15 0-8 7-15 15-15 9 0 15 7 15 15z m-15-184c0 8-7 15-15 15-9 0-15-7-15-15 0-9 6-15 15-15 8 0 15 6 15 15z m271-68c0 15-12 27-27 27-15 0-27-12-27-27 0-14 12-26 27-26 15 0 27 12 27 26z m48 81c0 8-6 13-13 13-7 0-13-5-13-13 0-7 6-13 13-13 7 0 13 6 13 13z"/>
<glyph unicode="&#45;" d="M230 140c0 0 0 0-1 0-3 1-6 3-8 6-13 21-33 37-57 42-14 3-29 3-42-2-3-1-7 0-9 1-3 2-5 5-5 9-3 33-27 62-59 73-3 1-6 3-7 6-1 3-1 6 0 8 2 6 4 11 5 17 4 27-8 56-32 75-2 2-3 5-4 8 0 3 1 6 3 8 9 10 14 22 16 35 2 10-2 31-28 69-3 4-3 9 1 13 4 4 9 4 14 1 34-23 54-28 64-28 2 0 3 0 5 0 13 2 25 8 34 16 3 2 5 3 8 3 3 0 6-2 8-4 19-23 48-35 75-31 6 0 11 2 17 4 2 1 6 1 8 0 3-1 5-4 6-6 11-33 40-57 74-60 3 0 6-2 8-4 2-3 2-7 1-10-5-13-5-27-2-42 5-24 21-44 42-57 4-1 6-5 6-8 0-4-2-7-5-10-23-16-33-45-26-75 1-6 3-11 6-17 2-4 1-9-2-12-4-3-8-4-13-2-5 2-11 4-17 6-29 6-59-5-75-27-2-3-6-5-9-5z m-84 72c8 0 15-1 23-3 25-6 47-20 62-40 22 21 55 31 88 23-8 33 2 66 24 88-21 16-35 38-41 63-3 13-3 28-1 41-33 7-61 30-75 62-4-1-8-2-12-2-31-5-64 7-88 31-11-8-24-13-37-15-14-2-29 2-48 10 9-18 12-34 10-47-2-14-7-27-15-38 25-23 36-56 32-88-1-4-2-8-3-11 32-14 55-43 62-76 6 1 13 2 19 2z m151-203c-51 0-93 41-93 92 0 51 42 92 93 92 50 0 92-41 92-92 0-51-42-92-92-92z m0 163c-40 0-71-32-71-71 0-39 31-71 71-71 39 0 70 32 70 71 0 39-31 71-70 71z m115-48c-51 0-92 41-92 92 0 51 41 92 92 92 51 0 92-41 92-92 0-51-41-92-92-92z m0 163c-39 0-71-32-71-71 0-39 32-71 71-71 39 0 71 32 71 71 0 39-32 71-71 71z m28-286c-20 0-38 7-51 21-29 28-29 74 0 102 13 14 31 21 51 21 19 0 37-7 51-21 28-28 28-74 0-102-14-14-32-21-51-21z m0 123c-14 0-27-5-36-15-20-20-20-52 0-72 9-10 22-15 36-15 13 0 26 5 36 15 20 20 20 52 0 72-10 10-23 15-36 15z m-133 69c-2 0-5 1-7 3l-221 222c-5 4-5 11 0 15 4 4 10 4 15 0l221-222c4-4 4-11 0-15-2-2-5-3-8-3z m-47 49c-5 0-9 3-10 8l-30 122c-2 5 2 11 7 12 6 2 12-2 13-7l30-122c2-6-2-11-7-13-1 0-2 0-3 0z m-158 32c-6 0-10 3-11 9-1 5 3 11 9 12l107 18c6 1 12-3 13-9 1-6-3-11-9-12l-108-18c0 0-1 0-1 0z m44 82c-5 0-10 4-10 10l-1 77c0 6 5 11 11 11 6 0 10-5 10-11l1-77c0-5-5-10-10-10-1 0-1 0-1 0z"/>
<glyph unicode="&#46;" d="M256 0c-1 0-2 0-2 0-9 2-205 48-215 200 0 0-13 95 100 138 101 39 102 42 107 55 1 5 5 8 10 8 4 0 9-3 10-7 5-14 6-17 107-56 107-41 101-127 100-138-10-152-206-198-215-200 0 0-1 0-2 0z m0 369c-12-12-37-23-109-51-97-37-87-113-87-116 9-128 174-175 196-180 22 5 187 52 196 179 0 1 0 1 0 1 0 4 9 79-87 116-72 28-98 39-109 51z m199-137l-398 0c-6 0-10 5-10 11 0 5 4 10 10 10l398 0c6 0 10-5 10-10 0-6-4-11-10-11z m-9-93l-380 0c-6 0-11 5-11 11 0 5 5 10 11 10l380 0c6 0 11-5 11-10 0-6-5-11-11-11z m-324 120c-6 0-11 5-11 11l0 20c0 6 5 11 11 11 5 0 10-5 10-11l0-20c0-6-5-11-10-11z m44 0c-6 0-11 5-11 11l0 20c0 6 5 11 11 11 5 0 10-5 10-11l0-20c0-6-5-11-10-11z m44 0c-6 0-11 5-11 11l0 20c0 6 5 11 11 11 5 0 10-5 10-11l0-20c0-6-5-11-10-11z m43 0c-5 0-10 5-10 11l0 20c0 6 5 11 10 11 6 0 11-5 11-11l0-20c0-6-5-11-11-11z m44 0c-5 0-10 5-10 11l0 20c0 6 5 11 10 11 6 0 11-5 11-11l0-20c0-6-5-11-11-11z m44 0c-5 0-10 5-10 11l0 20c0 6 5 11 10 11 6 0 11-5 11-11l0-20c0-6-5-11-11-11z m44 0c-6 0-10 5-10 11l0 20c0 6 4 11 10 11 6 0 11-5 11-11l0-20c0-6-5-11-11-11z m-263-170c-6 0-11 5-11 11l0 20c0 6 5 11 11 11 5 0 10-5 10-11l0-20c0-6-5-11-10-11z m44 0c-6 0-11 5-11 11l0 20c0 6 5 11 11 11 5 0 10-5 10-11l0-20c0-6-5-11-10-11z m44 0c-6 0-11 5-11 11l0 20c0 6 5 11 11 11 5 0 10-5 10-11l0-20c0-6-5-11-10-11z m43 0c-5 0-10 5-10 11l0 20c0 6 5 11 10 11 6 0 11-5 11-11l0-20c0-6-5-11-11-11z m44 0c-5 0-10 5-10 11l0 20c0 6 5 11 10 11 6 0 11-5 11-11l0-20c0-6-5-11-11-11z m44 0c-5 0-10 5-10 11l0 20c0 6 5 11 10 11 6 0 11-5 11-11l0-20c0-6-5-11-11-11z m44 0c-6 0-10 5-10 11l0 20c0 6 4 11 10 11 6 0 11-5 11-11l0-20c0-6-5-11-11-11z m-293 88c-6 0-10 5-10 11l0 25c0 6 4 11 10 11 6 0 11-5 11-11l0-25c0-6-5-11-11-11z m54 0c-6 0-11 5-11 11l0 25c0 6 5 11 11 11 6 0 11-5 11-11l0-25c0-6-5-11-11-11z m54 0c-6 0-11 5-11 11l0 25c0 6 5 11 11 11 6 0 10-5 10-11l0-25c0-6-4-11-10-11z m53 0c-5 0-10 5-10 11l0 25c0 6 5 11 10 11 6 0 11-5 11-11l0-25c0-6-5-11-11-11z m54 0c-6 0-10 5-10 11l0 25c0 6 4 11 10 11 6 0 11-5 11-11l0-25c0-6-5-11-11-11z m54 0c-6 0-11 5-11 11l0 25c0 6 5 11 11 11 6 0 11-5 11-11l0-25c0-6-5-11-11-11z m54 0c-6 0-11 5-11 11l0 25c0 6 5 11 11 11 6 0 10-5 10-11l0-25c0-6-4-11-10-11z m-119 220c-5 0-9 3-10 8-1 1-3 3-4 5-2 1-4 3-5 5-2 2-3 4-5 6-1 2-2 4-3 5-3 3-6 6-10 9-2 2-5 4-8 7 0 0 0 0-1 1-3 3-4 7-2 12 1 1 1 3 2 5 0 2 1 5 2 7 4 10 8 17 12 22 0 0 24 29 46 22 5-1 17-6 22-17 4-7 3-16 3-23l0-1c-1-18-14-30-34-33-4-1-8-1-13-1 1-1 1-2 2-3 1-2 2-3 3-5 1-1 2-2 3-3 4-4 9-8 11-15 1-6-3-12-9-13 0 0-1 0-2 0z m-24 62c2 0 3 0 5-1 2 0 4 0 6-1 5 0 10 0 15 1 15 2 15 10 16 13l0 2c0 3 0 9-1 12-1 2-5 4-9 6-4 1-16-7-23-16-3-3-6-8-9-15 0-1 0-1 0-1z m-56-62c-1 0-2 0-2 0-6 1-10 7-9 13 2 7 7 11 11 15 1 1 2 2 3 3 1 2 2 3 3 5 1 1 1 2 2 3-5 0-9 0-13 1-20 3-33 15-34 33l0 1c0 7-1 16 3 23 5 11 17 16 22 17 22 7 46-22 46-22 4-5 8-12 12-22 1-2 1-5 2-7 1-2 1-4 2-5 2-5 1-9-2-12-1-1-1-1-1-1-3-3-6-5-8-7-4-3-7-6-10-9-1-1-2-3-3-5-2-2-3-4-5-6-1-2-3-4-5-5-1-2-3-4-4-5-1-5-5-8-10-8z m-7 94c-1 0-1 0-1 0-4-2-8-4-9-6-1-3-1-9-1-12l0-2c1-3 1-11 16-13 5-1 10-1 15-1 2 0 4 1 6 1 2 0 3 1 5 1 0 0 0 0 0 1-3 7-6 12-9 15-7 9-18 16-22 16z"/>
<glyph unicode="&#47;" d="M387 102l-262 0c-4 0-8 2-10 6-1 4-1 9 2 12l64 72-34 0c-4 0-8 2-10 6-2 4-1 8 2 11l64 80-18 0c-5 0-9 3-10 7-2 4-1 9 2 12l72 66c4 4 10 4 14 0l71-65c2-2 4-5 4-9 0-6-4-11-10-11 0 0 0 0-1 0l-18 0 63-79c3-1 4-4 4-8 0-5-5-10-11-10 0 0 0 0 0 0l-34 0 64-72c3-3 3-8 2-12-2-4-6-6-10-6z m-238 21l214 0-64 72c-3 3-3 8-2 12 2 4 6 6 10 6l36 0-65 80c-3 3-3 8-1 11 1 4 5 7 9 7l14 0-44 41-44-41 14 0c4 0 8-3 9-7 2-3 2-8-1-11l-65-80 36 0c4 0 8-2 10-6 1-4 1-9-2-12z m140-81l-66 0c-6 0-10 5-10 11l0 60c0 6 4 10 10 10l66 0c6 0 10-4 10-10l0-60c0-6-4-11-10-11z m-55 22l44 0 0 38-44 0z m211-64l-378 0c-37 0-67 32-67 72l0 316c0 39 30 72 67 72l378 0c37 0 67-33 67-72l0-316c0-40-30-72-67-72z m-378 438c-25 0-46-22-46-50l0-316c0-28 21-51 46-51l378 0c25 0 46 23 46 51l0 316c0 28-21 50-46 50z m63-33c-6 0-11 4-11 10l0 86c0 6 5 11 11 11 6 0 10-5 10-11l0-86c0-6-4-10-10-10z m252 0c-6 0-10 4-10 10l0 86c0 6 4 11 10 11 6 0 11-5 11-11l0-86c0-6-5-10-11-10z"/>
<glyph unicode="&#58;" d="M391 109c-2 0-4 0-6 1-5 3-6 10-3 15 13 20 30 37 45 53 17 18 33 34 45 54 21 36 28 89 1 121-7 8-43 48-77 31-10-6-21-22-26-34-1-2-2-8-3-13-3-15-6-34-18-42-5-4-11-5-18-3-12 3-17 14-21 23-4 9-7 15-12 16-5 2-13 3-17 0-5-3-6-10-7-15-1-11 4-26 9-42 9-28 19-60-1-83-4-5-11-5-15-1-5 3-5 10-1 15 12 14 5 37-3 62-6 19-12 36-10 52 2 17 9 25 16 30 9 6 21 7 35 3 15-4 21-18 25-28 2-3 5-11 7-11 1 0 1 0 1 0 5 3 8 19 9 28 1 7 2 13 4 17 7 16 21 36 36 45 37 19 78-6 103-37 34-39 26-102 1-145-13-22-30-40-47-57-16-17-31-32-43-50-2-4-5-5-9-5z m-36-95c-7 0-13 2-19 7l-134 98c-15 11-18 31-7 45l26 35c10 14 31 17 44 7l135-99c7-5 11-12 12-21 2-8 0-17-5-24l-26-35c-6-8-16-13-26-13z m-109 177c-3 0-6-2-8-4l-26-35c-3-5-2-12 2-15l135-99c4-4 11-3 15 2l25 35c2 2 3 5 2 8 0 3-2 5-4 7l-134 99c-2 1-4 2-7 2z m-125 6c-4 0-7 2-9 5-12 18-27 34-43 50-17 17-34 35-47 58-25 42-33 105 1 145 25 30 66 55 103 36 15-8 29-28 36-44 2-5 3-11 4-18 1-8 4-25 9-28 0 0 0 0 1 0 2 1 5 8 7 11 4 10 10 24 25 28 14 4 26 3 35-3 7-4 14-13 16-30 2-16-4-33-10-51-8-25-15-49-3-63 4-4 4-11-1-15-4-4-11-4-15 1-20 23-10 55-1 83 5 16 10 31 9 43-1 5-2 11-7 14-4 3-12 2-17 1-5-2-8-7-12-16-4-9-9-21-21-24-7-1-13 0-18 3-12 8-15 27-18 42-1 5-2 11-3 13-5 13-16 29-26 34-34 17-70-23-77-31-27-32-20-85 1-120 12-21 28-37 45-54 15-16 32-33 45-54 3-5 2-11-3-14-2-1-4-2-6-2z m36-94c-2 0-3 0-5 0-8 1-16 6-21 13l-26 35c-5 6-7 15-5 23 1 9 5 16 12 21l135 99c4 4 9 6 15 6 6 1 11-3 12-9 0-6-4-11-10-12-2 0-3-1-5-2l-134-99c-2-1-4-4-4-7-1-3 0-5 2-8l25-35c2-2 5-3 7-4 3 0 6 0 8 2l22 16c5 3 11 2 15-2 3-5 2-12-2-15l-22-16c-6-4-12-6-19-6z"/>
<glyph unicode="&#59;" d="M53 206c-10 0-19 3-27 9-24 21-12 44-5 59 3 6 6 11 7 16 7 25 16 46 27 69l2 5c8 18 18 36 34 53 36 37 74 59 113 68 30 6 66 13 102 13 12 0 24-1 35-3 30-4 63-27 81-56 12-19 16-38 19-57l1-4c2-5 3-11 3-16 0-5-4-9-9-10-6 0-10 3-12 8-1 4-1 7-2 11-7 14-30 27-47 27-10 0-13-5-14-7-6-10-5-26-4-40l0-5c0-6 2-12 5-19 1-2 2-4 3-7 1-4 2-8 2-12 1-4 2-8 3-10 1-3 2-5 4-7 6-12 15-29 0-49-8-10-20-15-33-15-9 0-19 3-26 9-36 29-73 44-110 44-68 0-115-53-120-60-8-9-20-14-32-14z m253 270c-34 0-68-6-97-12-35-8-70-28-102-62-15-15-23-31-30-47l-3-5c-10-23-19-42-25-65-2-7-5-14-9-20-9-18-11-25 0-33 8-7 22-6 29 2 9 11 60 67 136 67 42 0 83-16 123-49 9-6 22-5 29 4 7 8 5 12-2 24-1 3-3 5-4 8-3 5-4 11-5 16 0 4-1 7-2 9 0 2-1 5-2 7-3 7-6 16-6 25l-1 5c-1 16-2 36 7 52 7 11 18 18 33 18 13 0 26-5 38-12-2 7-5 13-9 20-15 23-42 43-66 46-10 1-21 2-32 2z m149-218c-32 0-57 25-57 57 0 31 25 57 57 57 31 0 57-26 57-57 0-32-26-57-57-57z m0 93c-20 0-36-16-36-36 0-20 16-36 36-36 20 0 36 16 36 36 0 20-16 36-36 36z m-352-337c-69 0-101 71-102 74-2 5 0 11 5 14 4 2 10 1 14-4 4-7 11-10 19-10 14 0 38 13 57 48 13 24 35 36 66 36 19 0 38-5 49-9 3 7 7 13 13 19 15 16 44 34 77 34 19 0 36-6 51-19 8-6 15-10 22-10 17 0 27 31 29 41 1 5 5 8 10 9 5 0 9-3 11-7 17-49 3-113-68-146-13-7-28-10-42-10-32 0-58 16-75 29-1-3-1-5-3-8-10-24-37-47-79-67-19-9-37-14-54-14z m-62 53c13-16 34-31 62-31 14 0 29 4 44 11 85 40 72 75 72 76-2 4-1 10 4 13 4 3 10 2 13-2 1 0 35-38 78-38 11 0 22 2 33 7 44 21 61 54 62 84-8-11-19-21-35-21-12 0-24 5-36 15-10 9-23 14-37 14-24 0-48-14-61-27-8-9-11-15-11-18 0-4-1-8-5-10-3-2-7-2-10-1 0 1-26 12-52 12-23 0-38-8-47-25-19-36-47-58-74-59z m126 153c0-8-6-14-14-14-7 0-14 6-14 14 0 7 7 14 14 14 8 0 14-7 14-14z m62 20c0-8-6-14-14-14-7 0-14 6-14 14 0 7 7 14 14 14 8 0 14-7 14-14z m-180 42c-3 0-5 1-7 3-5 3-5 10-1 15 1 1 135 149 315 16 4-4 5-10 2-15-4-5-10-6-15-2-164 121-281-8-286-14-2-2-5-3-8-3z"/>
<glyph unicode="&#60;" d="M256 6c-121 0-220 99-220 220 0 121 99 220 220 220 121 0 220-99 220-220 0-121-99-220-220-220z m0 419c-109 0-198-89-198-199 0-109 89-198 198-198 109 0 198 89 198 198 0 110-89 199-198 199z m-217-67c-4 0-7 2-9 5-30 44-18 104 26 133 16 10 34 16 53 16 32 0 62-16 80-42 3-5 2-12-3-15l-142-95c-1-1-3-2-5-2z m70 133c-15 0-29-5-41-13-31-21-42-61-26-94l122 82c-14 16-34 25-55 25z m364-133c-2 0-4 1-5 2l-142 95c-5 3-6 10-3 14 18 27 48 43 80 43 19 0 37-6 53-16 44-29 56-89 26-133-2-3-5-5-9-5z m-125 108l122-82c16 33 5 73-26 94-12 8-26 13-41 13-21 0-41-9-55-25z m-246-466c-2 0-4 1-6 2-5 4-6 10-3 15l33 45c4 5 11 6 15 2 5-3 6-10 3-15l-33-45c-2-2-6-4-9-4z m308 0c-3 0-7 2-9 4l-33 45c-3 5-2 12 3 15 4 4 11 3 15-2l33-45c3-5 2-11-3-15-2-1-4-2-6-2z m-154 215c-6 0-11 5-11 11l0 117c0 6 5 11 11 11 6 0 11-5 11-11l0-117c0-6-5-11-11-11z m0 152c-6 0-11 5-11 11l0 31c0 6 5 11 11 11 6 0 11-5 11-11l0-31c0-6-5-11-11-11z m0-334c-6 0-11 4-11 10l0 31c0 6 5 11 11 11 6 0 11-5 11-11l0-31c0-6-5-10-11-10z m183 182l-31 0c-6 0-11 5-11 11 0 6 5 11 11 11l31 0c6 0 10-5 10-11 0-6-4-11-10-11z m-335 0l-31 0c-6 0-10 5-10 11 0 6 4 11 10 11l31 0c6 0 11-5 11-11 0-6-5-11-11-11z"/>
<glyph unicode="&#61;" d="M293 347l-74 0c-6 0-11 4-11 10l0 90c0 6 5 10 11 10l74 0c6 0 11-4 11-10l0-90c0-6-5-10-11-10z m-63 21l52 0 0 68-52 0z m26-368c-52 0-93 84-93 192 0 74 21 142 53 173 2 2 4 3 7 3l66 0c3 0 5-1 7-3 32-31 53-99 53-173 0-108-41-192-93-192z m-29 347c-26-29-43-89-43-155 0-102 37-171 72-171 35 0 72 69 72 171 0 66-17 126-43 155z m29 95c-6 0-11 5-11 11l0 48c0 6 5 11 11 11 6 0 11-5 11-11l0-48c0-6-5-11-11-11z m-75-230c-5 0-9 3-10 8-2 6 2 12 7 13 108 27 121 94 122 97 1 5 6 9 12 8 6-1 10-6 9-12-1-3-16-83-137-114-1 0-2 0-3 0z m9-109c-4 0-9 3-10 8-1 6 2 12 8 13 98 24 132 91 133 92 2 5 9 7 14 4 5-2 7-9 5-14-2-3-39-76-147-103-1 0-2 0-3 0z"/>
<glyph unicode="&#62;" d="M256 216c-66 0-119 53-119 119 0 65 53 119 119 119 66 0 119-54 119-119 0-66-53-119-119-119z m0 216c-54 0-98-43-98-97 0-54 44-98 98-98 54 0 98 44 98 98 0 54-44 97-98 97z m0-432c-47 0-69 77-69 241 0 6 5 11 11 11 6 0 11-5 11-11 0-198 33-220 47-220 11 0 47 16 47 220 0 6 4 11 10 11 6 0 11-5 11-11 0-162-22-241-68-241z m31 428c-6 0-11 5-11 11 0 24-3 52-20 52-18 0-21-33-21-52 0-6-5-11-11-11-5 0-10 5-10 11 0 60 23 73 42 73 27 0 41-25 41-73 0-6-4-11-10-11z m-31-109c-65 0-110 32-111 32-5 4-6 11-2 15 3 5 10 6 15 3 3-3 90-64 197 0 5 3 12 2 15-4 3-5 1-11-4-14-40-24-78-32-110-32z m0-61c-63 0-107 31-108 31-4 4-5 10-2 15 4 5 10 6 15 2 4-2 87-61 191 1 5 3 11 1 14-4 3-5 2-11-3-14-39-24-76-31-107-31z m-68 57c0-5-3-9-8-9-4 0-8 4-8 9 0 4 4 8 8 8 5 0 8-4 8-8z m44-13c0-4-3-8-8-8-4 0-8 4-8 8 0 5 4 9 8 9 5 0 8-4 8-9z m55 0c0-4-3-8-8-8-4 0-8 4-8 8 0 5 4 9 8 9 5 0 8-4 8-9z m50 13c0-5-4-9-8-9-5 0-8 4-8 9 0 4 3 8 8 8 4 0 8-4 8-8z m-86-206c-33 0-53 11-54 12-5 3-7 10-4 15 3 5 10 6 15 3 2 0 38-20 97 2 5 2 12 0 14-6 2-5-1-11-7-14-23-9-44-12-61-12z m33 350c-1 0-3 1-4 1-27 11-47 1-48 1-5-3-11-1-14 4-3 5-1 12 4 15 1 0 29 15 66 0 6-2 8-8 6-14-2-4-6-7-10-7z"/>
<glyph unicode="&#63;" d="M438 0l-364 0c-5 0-10 5-10 11l0 201c0 6 5 11 10 11l364 0c5 0 10-5 10-11l0-201c0-6-5-11-10-11z m-353 21l342 0 0 180-342 0z m417 180c-1 0-1 0-1 0l-490 0c-4 0-7 2-9 5-2 3-3 6-1 10l82 231c2 4 6 7 10 7l326 0c4 0 8-3 10-7l82-229c1-2 1-4 1-6 0-6-5-11-10-11z m-476 22l460 0-75 210-310 0z m305 268l-66 0c-6 0-11 4-11 10 0 6 5 11 11 11l66 0c6 0 11-5 11-11 0-6-5-10-11-10z m-33-58c-6 0-10 4-10 10l0 58c0 6 4 11 10 11 6 0 11-5 11-11l0-58c0-6-5-10-11-10z m8-433l-100 0c-6 0-11 5-11 11l0 102c0 36 28 65 61 65 33 0 61-29 61-65l0-102c0-6-5-11-11-11z m-89 21l78 0 0 92c0 24-17 44-39 44-22 0-39-20-39-44z m-72 62c-6 0-11 4-11 10l0 49c0 6 5 11 11 11 6 0 11-5 11-11l0-49c0-6-5-10-11-10z m229 0c-6 0-10 4-10 10l0 49c0 6 4 11 10 11 6 0 11-5 11-11l0-49c0-6-5-10-11-10z m-274 170c-35 0-63 29-63 65 0 6 5 10 11 10 6 0 10-4 10-10 0-24 19-44 42-44 23 0 41 20 41 44 0 6 5 10 11 10 6 0 11-4 11-10 0-36-29-65-63-65z m104 0c-35 0-63 29-63 65 0 6 5 10 11 10 6 0 11-4 11-10 0-24 18-44 41-44 23 0 41 20 41 44 0 6 5 10 11 10 6 0 11-4 11-10 0-36-28-65-63-65z m104 0c-35 0-63 29-63 65 0 6 5 10 11 10 6 0 11-4 11-10 0-24 18-44 41-44 23 0 41 20 41 44 0 6 5 10 11 10 6 0 11-4 11-10 0-36-28-65-63-65z m104 0c-34 0-63 29-63 65 0 6 5 10 11 10 6 0 11-4 11-10 0-24 18-44 41-44 23 0 42 20 42 44 0 6 4 10 10 10 6 0 11-4 11-10 0-36-28-65-63-65z m-286 94c-30 0-54 25-54 55 0 6 5 11 11 11 6 0 10-5 10-11 0-19 15-34 33-34 18 0 33 15 33 34 0 6 4 11 10 11 6 0 11-5 11-11 0-30-24-55-54-55z m87 0c-30 0-54 25-54 55 0 6 4 11 10 11 6 0 11-5 11-11 0-19 15-34 33-34 18 0 32 15 32 34 0 6 5 11 11 11 6 0 11-5 11-11 0-30-25-55-54-55z m86 0c-29 0-54 25-54 55 0 6 5 11 11 11 6 0 11-5 11-11 0-19 14-34 32-34 18 0 33 15 33 34 0 6 5 11 11 11 6 0 10-5 10-11 0-30-24-55-54-55z m87 0c-30 0-54 25-54 55 0 6 5 11 11 11 6 0 10-5 10-11 0-19 15-34 33-34 18 0 33 15 33 34 0 6 4 11 10 11 6 0 11-5 11-11 0-30-24-55-54-55z"/>
</font>
</defs>
</svg>
